<?xml version="1.0" standalone="no"?>
<!DOCTYPE svg PUBLIC "-//W3C//DTD SVG 1.1//EN" "http://www.w3.org/Graphics/SVG/1.1/DTD/svg11.dtd" >
<svg>
<metadata>
Created by FontForge 20090914 at Tue Feb 26 23:26:28 2019
 By www-data
Modern and elegant sans serif font family.
</metadata>
<defs>
<font id="Mont-Heavy" horiz-adv-x="972" >
  <font-face 
    font-family="Mont Heavy"
    font-weight="900"
    font-stretch="normal"
    units-per-em="2048"
    panose-1="0 0 10 0 0 0 0 0 0 0"
    ascent="1638"
    descent="-410"
    x-height="1106"
    cap-height="1434"
    bbox="-87 -476.002 2138 1720"
    underline-thickness="102"
    underline-position="-510"
    unicode-range="U+0020-U+25FC"
  />
<missing-glyph horiz-adv-x="748" 
d="M68 0v1365h544v-1365h-544zM136 68h408v1229h-408v-1229z" />
    <glyph glyph-name=".notdef" horiz-adv-x="748" 
d="M68 0v1365h544v-1365h-544zM136 68h408v1229h-408v-1229z" />
    <glyph glyph-name="space" unicode=" " horiz-adv-x="444" 
 />
    <glyph glyph-name="exclam" unicode="!" horiz-adv-x="645" 
d="M145 477v998h356v-998h-356zM137 0v354h370v-354h-370z" />
    <glyph glyph-name="quotedbl" unicode="&#x22;" horiz-adv-x="1001" 
d="M109 885v553h322v-553h-322zM571 885v553h322v-553h-322z" />
    <glyph glyph-name="numbersign" unicode="#" horiz-adv-x="1341" 
d="M1258 817h-151l-29 -206h132v-303h-182l-45 -306h-319l45 306h-183l-49 -306h-321l49 306h-123v303h172l33 206h-158v292h205l49 325h321l-49 -325h175l49 325h319l-49 -325h109v-292zM760 611l30 206h-184l-34 -206h188z" />
    <glyph glyph-name="dollar" unicode="$" horiz-adv-x="1247" 
d="M1177 422c0 -119.333 -35.165 -216.327 -105.498 -290.994s-166.5 -123.334 -288.5 -146.001v-143h-306v143c-126.667 23.333 -225.667 74.666 -297 153.999s-107 180.666 -107 303.999h391c0 -44 15.5 -78.167 46.5 -102.5s69.167 -36.5 114.5 -36.5
c42.667 0 79.167 10 109.5 30s45.5 47 45.5 81c0 14 -2.5 26.667 -7.5 38s-13.667 21.5 -26 30.5s-23.833 16.667 -34.5 23s-27.5 13 -50.5 20s-41 12.167 -54 15.5l-63.5 16l-68.5 17c-15.667 4 -38.334 10.667 -68.001 20s-53 17.833 -70 25.5s-38.167 18.167 -63.5 31.5
s-45.5 26.833 -60.5 40.5s-31.167 30.667 -48.5 51s-30.833 41.666 -40.5 63.999s-17.667 48.333 -24 78s-9.5 61.5 -9.5 95.5c0 110 32.5 200.333 97.5 271s156.5 116.667 274.5 138v135h306v-137c116.667 -22.667 206.5 -71 269.5 -145s94.5 -168 94.5 -282l-380 -1
c0 38.667 -13.5 68.334 -40.5 89.001s-61.167 31 -102.5 31c-36.667 0 -68.167 -7.5 -94.5 -22.5s-39.5 -36.5 -39.5 -64.5c0 -15.333 4.33301 -29.333 13 -42s18.667 -23 30 -31s29.166 -16.333 53.499 -25s44.833 -15.334 61.5 -20.001s42 -11.334 76 -20.001h1
c116.667 -30 202 -59 256 -87c136 -70.667 206 -181.334 210 -332.001v-14z" />
    <glyph glyph-name="percent" unicode="%" horiz-adv-x="1929" 
d="M442 749c-115.333 0 -209.167 34.667 -281.5 104s-108.5 159 -108.5 269s36.167 199.5 108.5 268.5s166.166 103.5 281.499 103.5c116 0 210 -34.5 282 -103.5s108 -158.5 108 -268.5s-36.167 -199.667 -108.5 -269s-166.166 -104 -281.499 -104zM327.999 -8l870 1444
h374l-871 -1444h-373zM441.999 1014c30.667 0 56.167 10.167 76.5 30.5s30.5 46.166 30.5 77.499c0 32 -10 57.833 -30 77.5s-45.667 29.5 -77 29.5s-57 -10 -77 -30s-30 -45.667 -30 -77s10.167 -57.166 30.5 -77.499s45.833 -30.5 76.5 -30.5zM1486 -25
c-114.667 0 -208.167 34.667 -280.5 104s-108.5 159 -108.5 269s36.167 199.667 108.5 269s165.833 104 280.5 104c115.333 0 209.166 -34.667 281.499 -104s108.5 -159 108.5 -269s-36.167 -199.667 -108.5 -269s-166.166 -104 -281.499 -104zM1486 241
c31.333 0 57 10 77 30s30 45.667 30 77c0 32 -10 57.833 -30 77.5s-45.667 29.5 -77 29.5s-57 -10 -77 -30s-30 -45.667 -30 -77c0 -30.667 10.167 -56.167 30.5 -76.5s45.833 -30.5 76.5 -30.5z" />
    <glyph glyph-name="ampersand" unicode="&#x26;" horiz-adv-x="1357" 
d="M1371 0l-376.005 0.000976562l-69 76c-116.667 -72 -248 -108 -394 -108c-138 0 -250.167 39.167 -336.5 117.5s-129.5 180.5 -129.5 306.5c0 89.333 22.333 166 67 230s105.334 121.667 182.001 173c-52.667 75.333 -88.5 137.333 -107.5 186s-28.5 95.667 -28.5 141
c0 112.667 41 201 123 265s186 96 312 96c124 0 226.833 -32.167 308.5 -96.5s122.5 -152.166 122.5 -263.499c0 -38 -5.83301 -74.167 -17.5 -108.5s-26.167 -64.333 -43.5 -90s-40.166 -51.334 -68.499 -77.001s-55.166 -47.5 -80.499 -65.5s-55.666 -37.667 -90.999 -59
l173 -203c24.667 52 39.334 107.667 44.001 167h311c-6.66699 -156.667 -52.667 -295.334 -138 -416.001zM613.995 1216c-32 0 -58 -9.33301 -78 -28s-30 -44 -30 -76c0 -40 23 -95.333 69 -166c47.333 28 83.333 55 108 81s37 54.333 37 85c0 31.333 -10 56.5 -30 75.5
s-45.333 28.5 -76 28.5zM561.995 270.001c53.333 0 104.667 12.333 154 37l-220 255c-57.333 -50.667 -86 -103.667 -86 -159c0 -40 13.833 -72.167 41.5 -96.5s64.5 -36.5 110.5 -36.5z" />
    <glyph glyph-name="quotesingle" unicode="'" horiz-adv-x="540" 
d="M109 885v553h322v-553h-322z" />
    <glyph glyph-name="parenleft" unicode="(" horiz-adv-x="761" 
d="M371 -335c-94 136.667 -167.001 288.667 -219.001 456s-78 342.666 -78 525.999c0 184 25.833 360 77.5 528s124.834 321 219.501 459h406c-40 -51.333 -78.667 -110.333 -116 -177s-72.833 -142 -106.5 -226s-60.667 -176.833 -81 -278.5s-30.5 -203.5 -30.5 -305.5
c0 -101.333 9.83301 -202.666 29.5 -303.999s46 -193.666 79 -276.999s68 -158.333 105 -225s75.833 -125.334 116.5 -176.001h-402z" />
    <glyph glyph-name="parenright" unicode=")" horiz-adv-x="761" 
d="M392 -335h-402.001c40.667 50.667 79.5 109.334 116.5 176.001s72 141.667 105 225s59.333 175.666 79 276.999s29.5 202.666 29.5 303.999c0 102 -10.167 203.833 -30.5 305.5s-47.333 194.5 -81 278.5s-69.167 159.333 -106.5 226s-76 125.667 -116 177h406
c94.667 -138 167.834 -291 219.501 -459s77.5 -344 77.5 -528c0 -183.333 -26 -358.666 -78 -525.999s-125 -319.333 -219 -456z" />
    <glyph glyph-name="asterisk" unicode="*" horiz-adv-x="882" 
d="M824 1115l-169 -59l119 -138l-197 -166l-136 163l-135 -163l-197 166l117 137l-167 60l85 241l170 -62v185h255v-185l169 62z" />
    <glyph glyph-name="plus" unicode="+" horiz-adv-x="1120" 
d="M1056 832v-322h-324v-349h-344v349h-325v322h325v340h344v-340h324z" />
    <glyph glyph-name="comma" unicode="," horiz-adv-x="583" 
d="M121 -358l-0.000976562 189.001c52.667 4.66699 93 22.667 121 54s42 69.666 42 114.999h-178v354h372v-324c0 -110 -32.667 -199.833 -98 -269.5s-151.666 -109.167 -258.999 -118.5z" />
    <glyph glyph-name="hyphen" unicode="-" 
d="M112 394v346h750v-346h-750z" />
    <glyph glyph-name="period" unicode="." horiz-adv-x="581" 
d="M106 0v354h369v-354h-369z" />
    <glyph glyph-name="slash" unicode="/" horiz-adv-x="1103" 
d="M37 -172l629 1731h399l-628 -1731h-400z" />
    <glyph glyph-name="zero" unicode="0" horiz-adv-x="1351" 
d="M676 -36c-181.333 0 -326.166 64.833 -434.499 194.5s-162.5 303.167 -162.5 520.5c0 218 54.167 391.833 162.5 521.5s253.166 194.5 434.499 194.5s326 -64.833 434 -194.5s162 -303.5 162 -521.5c0 -217.333 -54 -390.833 -162 -520.5s-252.667 -194.5 -434 -194.5z
M676 289c71.333 0 126.166 33.499 164.499 100.499s57.5 163.167 57.5 288.5s-19.167 222 -57.5 290s-93.166 102 -164.499 102s-126.333 -33.833 -165 -101.5s-58 -164.167 -58 -289.5s19.333 -221.666 58 -288.999s93.667 -101 165 -101z" />
    <glyph glyph-name="one" unicode="1" horiz-adv-x="772" 
d="M61 1362h568v-1362h-366v1053h-202v309z" />
    <glyph glyph-name="two" unicode="2" horiz-adv-x="1157" 
d="M689 323l379.002 -0.00195312v-323h-1013v83l277 329.5l178 219c51.333 65 87.666 115.5 108.999 151.5s36.666 66.833 45.999 92.5s14 50.834 14 75.501c0 36.667 -11 66.334 -33 89.001s-50.667 34 -86 34c-38 0 -68 -12 -90 -36s-33 -56.667 -33 -98v-26h-360v25
c0 138.667 42.833 249.667 128.5 333s202.5 125 350.5 125c144.667 0 262.167 -40.333 352.5 -121s135.5 -185 135.5 -313c0 -88 -23.667 -175.5 -71 -262.5s-142 -212.833 -284 -377.5z" />
    <glyph glyph-name="three" unicode="3" horiz-adv-x="1161" 
d="M765 862c98 -24.667 175.83 -74.332 233.497 -148.999s86.5 -164.334 86.5 -269.001c0 -138.667 -48.333 -252.667 -145 -342s-219.667 -134 -369 -134c-146 0 -265.167 43.5 -357.5 130.5s-140.5 201.167 -144.5 342.5h350c2 -48 16.833 -86.5 44.5 -115.5
s63.834 -43.5 108.501 -43.5c46.667 0 84.834 15.5 114.501 46.5s44.5 71.5 44.5 121.5s-15.667 89.333 -47 118s-73.666 43 -126.999 43h-218v76l221 364h-457v311h935v-63z" />
    <glyph glyph-name="four" unicode="4" horiz-adv-x="1200" 
d="M1150 550v-305h-123v-245h-350v245h-654v66l437 1051h361l-337 -812h218l80 300h245v-300h123z" />
    <glyph glyph-name="five" unicode="5" horiz-adv-x="1155" 
d="M572 896c152 0 275.667 -42.165 371 -126.498s143 -193.5 143 -327.5c0 -138.667 -47.667 -252.334 -143 -341.001s-217.333 -133 -366 -133s-270.167 44.167 -364.5 132.5s-141.5 201.5 -141.5 339.5h350c0 -46 14.5 -83.833 43.5 -113.5s66.5 -44.5 112.5 -44.5
c44.667 0 81.667 15.167 111 45.5s44 68.5 44 114.5c0 49.333 -15.5 89.166 -46.5 119.499s-71.5 45.5 -121.5 45.5h-424l-35 45l76 710h807v-310h-526l-17 -156h127z" />
    <glyph glyph-name="six" unicode="6" horiz-adv-x="1193" 
d="M691 919c136.667 0 248 -41.5 334 -124.5s129 -190.167 129 -321.5c0 -149.333 -50 -270.833 -150 -364.5s-230 -140.5 -390 -140.5c-160.667 0 -291.167 46.667 -391.5 140s-150.5 214.333 -150.5 363c0 71.333 12 144 36 218s64 157.667 120 251l250 422h393l-270 -450
c34 4.66699 64 7 90 7zM613 281c56 0 101.667 17.833 137 53.5s53 81.834 53 138.501c0 57.333 -17.667 103.833 -53 139.5s-81 53.5 -137 53.5c-55.333 0 -100.833 -17.833 -136.5 -53.5s-53.5 -82.167 -53.5 -139.5c0 -56.667 17.833 -102.834 53.5 -138.501
s81.167 -53.5 136.5 -53.5z" />
    <glyph glyph-name="seven" unicode="7" horiz-adv-x="1126" 
d="M50 1362h1046v-53l-516 -1309h-385l417 1043h-562v319z" />
    <glyph glyph-name="eight" unicode="8" horiz-adv-x="1232" 
d="M974 721c121.333 -77.333 182.001 -183.666 182.001 -318.999c0 -128.667 -49.833 -233.167 -149.5 -313.5s-229.834 -120.5 -390.501 -120.5s-290.5 40 -389.5 120s-148.5 184.667 -148.5 314c0 136.667 60.333 243 181 319c-95.333 77.333 -143 170.666 -143 279.999
c0 118 46 213.5 138 286.5s213 109.5 363 109.5s271 -36.5 363 -109.5s138 -168.5 138 -286.5c0 -110 -48 -203.333 -144 -280zM618.001 1126c-46 0 -83.667 -12.833 -113 -38.5s-44 -58.167 -44 -97.5s14.667 -71.833 44 -97.5s67 -38.5 113 -38.5s83.167 12.667 111.5 38
s42.5 58 42.5 98s-14.167 72.667 -42.5 98s-65.5 38 -111.5 38zM618.001 252c54.667 0 98.5 15 131.5 45s49.5 69 49.5 117s-16.5 87 -49.5 117s-76.833 45 -131.5 45s-99 -15 -133 -45s-51 -69 -51 -117s17 -87 51 -117s78.333 -45 133 -45z" />
    <glyph glyph-name="nine" unicode="9" horiz-adv-x="1193" 
d="M581 1397c160.667 0 291.166 -46.667 391.499 -140s150.5 -214.333 150.5 -363c0 -71.333 -12.167 -143.833 -36.5 -217.5s-64.166 -157.5 -119.499 -251.5l-251 -425h-393l135.5 226.5l135.5 226.5c-29.333 -4 -59.333 -6 -90 -6c-136.667 0 -248 41.333 -334 124
s-129 189.667 -129 321c0 149.333 50 270.833 150 364.5s230 140.5 390 140.5zM581.999 697c58.667 0 106.667 18.168 144 54.501s56 83.166 56 140.499s-18.833 104 -56.5 140s-85.5 54 -143.5 54c-58.667 0 -106.667 -18 -144 -54s-56 -82.667 -56 -140
c0 -58 18.667 -105 56 -141s85.333 -54 144 -54z" />
    <glyph glyph-name="colon" unicode=":" horiz-adv-x="591" 
d="M112 739v354h369v-354h-369zM112 0v354h369v-354h-369z" />
    <glyph glyph-name="semicolon" unicode=";" horiz-adv-x="595" 
d="M114 740v354h369v-354h-369zM127 -358v189.001c52.667 4.66699 93 22.667 121 54s42 69.666 42 114.999h-178v354h371v-324c0 -110 -32.5 -199.833 -97.5 -269.5s-151.167 -109.167 -258.5 -118.5z" />
    <glyph glyph-name="less" unicode="&#x3c;" horiz-adv-x="1069" 
d="M930 1273v-399l-415 -209l415 -205v-399l-881 542v117z" />
    <glyph glyph-name="equal" unicode="=" horiz-adv-x="1196" 
d="M117 738v310h960v-310h-960zM117 284v310h960v-310h-960z" />
    <glyph glyph-name="greater" unicode="&#x3e;" horiz-adv-x="1069" 
d="M139 1273l880 -553v-117l-880 -542v399l414 205l-414 209v399z" />
    <glyph glyph-name="question" unicode="?" horiz-adv-x="1144" 
d="M366 457l-0.00292969 38.998c0 44.667 4.66699 85.834 14 123.501s19.833 68.334 31.5 92.001s28.667 47.5 51 71.5s40.5 41.667 54.5 53s34 26.333 60 45c22 16 38.667 28.5 50 37.5s24 20.833 38 35.5s23.833 30 29.5 46s8.5 34 8.5 54c0 42.667 -13.833 77 -41.5 103
s-61.5 39 -101.5 39c-41.333 0 -77 -13.333 -107 -40s-45 -63 -45 -109h-358c0 98.667 23.333 184 70 256s108 125.5 184 160.5s161.667 52.5 257 52.5c148 0 270.167 -42 366.5 -126s144.5 -194.667 144.5 -332c0 -37.333 -4.33301 -72.333 -13 -105
s-18.667 -59.834 -30 -81.501s-27.666 -44 -48.999 -67s-39 -40.5 -53 -52.5s-34 -28 -60 -48c-25.333 -19.333 -44.166 -34.333 -56.499 -45s-26.666 -25 -42.999 -43s-28 -36.667 -35 -56s-10.5 -40.666 -10.5 -63.999v-39h-356zM357.997 -0.00195312v354h370v-354h-370z
" />
    <glyph glyph-name="at" unicode="@" horiz-adv-x="2078" 
d="M1042 1401c104.667 0 205.166 -12.666 301.499 -37.999s184.666 -63 264.999 -113s150.5 -109.833 210.5 -179.5s106.667 -151.667 140 -246s50 -195.5 50 -303.5c0 -78 -11.667 -148.833 -35 -212.5s-54.666 -115.667 -93.999 -156s-84.5 -71.333 -135.5 -93
s-105.167 -32.5 -162.5 -32.5c-64 0 -120.833 11.5 -170.5 34.5s-88.834 55.5 -117.501 97.5c-81.333 -88 -184 -132 -308 -132c-135.333 0 -246.333 43.667 -333 131s-130 199 -130 335s43.333 247.5 130 334.5s197.667 130.5 333 130.5c116 0 214 -39 294 -117l33 54h159
v-464c0 -40.667 10.833 -72.667 32.5 -96s49.167 -35 82.5 -35c40.667 0 74.667 19 102 57s41 92.667 41 164c0 117.333 -28.667 222.333 -86 315s-137.666 165.167 -240.999 217.5s-221 78.5 -353 78.5c-134 0 -254.5 -27.333 -361.5 -82s-190.667 -130.5 -251 -227.5
s-90.5 -206.167 -90.5 -327.5c0 -118.667 27.333 -225 82 -319s131 -167.167 229 -219.5s209 -78.5 333 -78.5c109.333 0 215 21 317 63v-264c-124 -44.667 -243.667 -67 -359 -67c-167.333 0 -318.333 37.833 -453 113.5s-240.334 181 -317.001 316
s-115 286.833 -115 455.5c0 139.333 26.333 266.666 79 381.999s123.834 210.833 213.501 286.5s193.334 134.167 311.001 175.5s242.5 62 374.5 62zM1016 313.001c52.667 0 96 17.167 130 51.5s51 77.833 51 130.5s-17 96 -51 130s-77.333 51 -130 51s-96 -17 -130 -51
s-51 -77.333 -51 -130s17 -96.167 51 -130.5s77.333 -51.5 130 -51.5z" />
    <glyph glyph-name="A" unicode="A" horiz-adv-x="1523" 
d="M1089 0l-79 233h-508l-79 -233h-423l563 1434h386l575 -1434h-435zM914 542l-159 444l-157 -444h316z" />
    <glyph glyph-name="B" unicode="B" horiz-adv-x="1333" 
d="M1045 757c68 -32 121.501 -78.833 160.501 -140.5s58.5 -131.167 58.5 -208.5c0 -116 -44.333 -213 -133 -291s-199.334 -117 -332.001 -117h-660v1434h647c127.333 0 232.5 -34.667 315.5 -104s124.5 -157 124.5 -263c0 -63.333 -16.333 -122.5 -49 -177.5
s-76.667 -99.167 -132 -132.5zM851.001 1001c0 37.333 -12 67.5 -36 90.5s-56.667 34.5 -98 34.5h-199v-250h199c41.333 0 74 11.5 98 34.5s36 53.167 36 90.5zM732.001 324c42.667 0 77 12.167 103 36.5s39 55.833 39 94.5c0 38 -13 69.167 -39 93.5
s-60.333 36.5 -103 36.5h-214v-261h214z" />
    <glyph glyph-name="C" unicode="C" horiz-adv-x="1605" 
d="M826 -36c-143.333 0 -273.165 32.668 -389.498 98.001s-207.5 155.333 -273.5 270s-99 242.667 -99 384c0 142 33 270.5 99 385.5s157.167 205.167 273.5 270.5s246.166 98 389.499 98c188 0 348.5 -56.5 481.5 -169.5s214.167 -260.5 243.5 -442.5h-400
c-24.667 74 -66 133 -124 177s-124.667 66 -200 66c-101.333 0 -185.333 -36.333 -252 -109s-100 -164.667 -100 -276c0 -110.667 33.333 -202 100 -274s150.667 -108 252 -108c79.333 0 148.166 23.833 206.499 71.5s97.5 111.5 117.5 191.5h404
c-27.333 -188.667 -108 -341.334 -242 -458.001s-296.333 -175 -487 -175z" />
    <glyph glyph-name="D" unicode="D" horiz-adv-x="1525" 
d="M719 1434c142.667 0 270.334 -30.333 383.001 -91s200.334 -145.5 263.001 -254.5s94 -232.5 94 -370.5s-31.333 -261.5 -94 -370.5s-150.334 -194.167 -263.001 -255.5s-240.334 -92 -383.001 -92h-580v1434h580zM700 362c106 0 191.5 32.832 256.5 98.499
s97.5 151.5 97.5 257.5c0 106.667 -32.5 192.334 -97.5 257.001s-150.5 97 -256.5 97h-165v-710h165z" />
    <glyph glyph-name="E" unicode="E" horiz-adv-x="1161" 
d="M532 343h541v-343h-934v1434h917v-342h-524v-211h471v-324h-471v-214z" />
    <glyph glyph-name="F" unicode="F" horiz-adv-x="1122" 
d="M1051 1076h-514v-228h461v-346h-461v-502h-398v1434h912v-358z" />
    <glyph glyph-name="G" unicode="G" horiz-adv-x="1644" 
d="M798 766l785.999 0.00292969c0 -116 -18.5 -223.667 -55.5 -323s-88.333 -184.166 -154 -254.499s-145.5 -125.333 -239.5 -165s-196.333 -59.5 -307 -59.5c-108 0 -209.333 18.833 -304 56.5s-175.5 89.5 -242.5 155.5s-119.833 145.667 -158.5 239
s-58 193.666 -58 300.999s19 207.666 57 300.999s90.333 173.166 157 239.499s147.167 118.5 241.5 156.5s195.833 57 304.5 57c188 0 351.333 -53 490 -159s223.334 -242.333 254.001 -409h-414c-26 60.667 -68.5 108.834 -127.5 144.501s-125.167 53.5 -198.5 53.5
c-107.333 0 -194.166 -35.333 -260.499 -106s-99.5 -163.334 -99.5 -278.001c0 -114 33 -206.167 99 -276.5s153 -105.5 261 -105.5c75.333 0 142.666 16.667 201.999 50s100.333 77.666 123 132.999h-356v249z" />
    <glyph glyph-name="H" unicode="H" horiz-adv-x="1503" 
d="M967 1434h399v-1434h-399v550h-430v-550h-398v1434h398v-518h430v518z" />
    <glyph glyph-name="I" unicode="I" horiz-adv-x="677" 
d="M139 0v1434h400v-1434h-400z" />
    <glyph glyph-name="J" unicode="J" horiz-adv-x="1273" 
d="M593 -36c-165.333 0 -300.168 49 -404.501 147s-156.5 225 -156.5 381v56h398v-36c0 -54.667 14.833 -98.5 44.5 -131.5s69.167 -49.5 118.5 -49.5c46.667 0 84.667 16.5 114 49.5s44 76.833 44 131.5v922h397v-942c0 -156 -51.167 -283 -153.5 -381
s-236.166 -147 -401.499 -147z" />
    <glyph glyph-name="K" unicode="K" horiz-adv-x="1386" 
d="M1413 0h-468l-411 633v-633h-395v1434h395v-605l378 605h458l-459 -695z" />
    <glyph glyph-name="L" unicode="L" horiz-adv-x="1087" 
d="M539 362h510v-362h-910v1434h400v-1072z" />
    <glyph glyph-name="M" unicode="M" horiz-adv-x="2011" 
d="M1955 0h-399l-112 826l-380 -828h-117l-380 827l-110 -825h-400l217 1434h394l338 -780l340 780h394z" />
    <glyph glyph-name="N" unicode="N" horiz-adv-x="1556" 
d="M1035 1434h382v-1434h-326l-570 778v-778h-382v1434h345l551 -753v753z" />
    <glyph glyph-name="O" unicode="O" horiz-adv-x="1703" 
d="M853 -36c-152 0 -288 32.1709 -408 96.5039s-213.5 153.833 -280.5 268.5s-100.5 244 -100.5 388s33.5 273.333 100.5 388s160.5 204.167 280.5 268.5s256 96.5 408 96.5c113.333 0 218.833 -18.833 316.5 -56.5s181 -89.334 250 -155.001
s123.167 -145.334 162.5 -239.001s59 -194.5 59 -302.5s-19.667 -208.833 -59 -302.5s-93.5 -173.334 -162.5 -239.001s-152.333 -117.334 -250 -155.001s-203.167 -56.5 -316.5 -56.5zM853 331.004c109.333 0 199.333 36.333 270 109s106 165 106 277
s-35.333 204.167 -106 276.5s-160.667 108.5 -270 108.5s-199.666 -36.333 -270.999 -109s-107 -164.667 -107 -276s35.667 -203.5 107 -276.5s161.666 -109.5 270.999 -109.5z" />
    <glyph glyph-name="P" unicode="P" horiz-adv-x="1320" 
d="M749 1434c152.667 0 279.334 -48.833 380.001 -146.5s151 -221.5 151 -371.5s-50.333 -274.167 -151 -372.5s-227.334 -147.5 -380.001 -147.5h-215v-396h-395v1434h610zM702 741c51.333 0 92.833 16.1689 124.5 48.502s47.5 74.166 47.5 125.499
s-15.833 93.166 -47.5 125.499s-73.167 48.5 -124.5 48.5h-168v-348h168z" />
    <glyph glyph-name="Q" unicode="Q" horiz-adv-x="1705" 
d="M1706 -195l-420 0.00292969l-161 199c-85.333 -26.667 -176 -40 -272 -40c-152 0 -288 32.167 -408 96.5s-213.5 153.833 -280.5 268.5s-100.5 244 -100.5 388s33.5 273.333 100.5 388s160.5 204.167 280.5 268.5s256 96.5 408 96.5
c113.333 0 218.833 -18.833 316.5 -56.5s181 -89.334 250 -155.001s123.167 -145.334 162.5 -239.001s59 -194.5 59 -302.5c0 -110.667 -20.333 -213.334 -61 -308.001s-98 -176 -172 -244zM475 717.003c0 -111.333 35.667 -203.5 107 -276.5s161.666 -109.5 270.999 -109.5
s199.333 36.333 270 109s106 165 106 277s-35.333 204.167 -106 276.5s-160.667 108.5 -270 108.5s-199.666 -36.333 -270.999 -109s-107 -164.667 -107 -276z" />
    <glyph glyph-name="R" unicode="R" horiz-adv-x="1384" 
d="M909 0l-232 439h-143v-439h-395v1434h621c155.333 0 283 -47.333 383 -142s150 -216.667 150 -366c0 -86.667 -20 -165 -60 -235s-96 -126.667 -168 -170l285 -521h-441zM534 1083v-312h180c54 0 96.5 14.5 127.5 43.5s46.5 66.5 46.5 112.5s-15.5 83.5 -46.5 112.5
s-73.5 43.5 -127.5 43.5h-180z" />
    <glyph glyph-name="S" unicode="S" horiz-adv-x="1288" 
d="M647 -35c-176.667 0 -317.167 44.333 -421.5 133s-156.5 210.334 -156.5 365.001h407c0 -48.667 16.167 -86.167 48.5 -112.5s72.5 -39.5 120.5 -39.5c44 0 82 11 114 33s48 51.667 48 89c0 14.667 -2.5 27.834 -7.5 39.501s-14.167 22.334 -27.5 32.001
s-25.5 17.667 -36.5 24s-28.667 13.166 -53 20.499s-43.166 12.833 -56.499 16.5s-35.666 9.16699 -66.999 16.5c-114.667 28.667 -197.334 55.334 -248.001 80.001c-128.667 62 -202 159 -220 291c-2.66699 22 -4 45.333 -4 70c0 140 48.5 249 145.5 327
s230.5 117 400.5 117c171.333 0 304.333 -41.333 399 -124s142 -197.334 142 -344.001h-397c0 43.333 -14 76.5 -42 99.5s-63.667 34.5 -107 34.5c-38 0 -70.5 -8.5 -97.5 -25.5s-40.5 -41.167 -40.5 -72.5c0 -13.333 2.5 -25.333 7.5 -36s13.833 -20.5 26.5 -29.5
s24.667 -16.667 36 -23s28.5 -13 51.5 -20l55.5 -16.5c14 -4 36 -9.66699 66 -17l73 -19c17.333 -4.66699 41.666 -12 72.999 -22s56.333 -19.167 75 -27.5s41.5 -19.833 68.5 -34.5s48.667 -29.334 65 -44.001s33.833 -32.834 52.5 -54.501s33.167 -44.334 43.5 -68.001
s19 -51.167 26 -82.5s10.5 -64.666 10.5 -99.999c0 -152 -52.5 -269.333 -157.5 -352s-243.5 -124 -415.5 -124z" />
    <glyph glyph-name="T" unicode="T" horiz-adv-x="1251" 
d="M1214 1434v-356h-390v-1078h-396v1078h-390v356h1176z" />
    <glyph glyph-name="U" unicode="U" horiz-adv-x="1499" 
d="M749 -36c-183.333 0 -333.5 54.667 -450.5 164s-175.5 251.666 -175.5 426.999v879h404v-872c0 -70 20.5 -126 61.5 -168s94.5 -63 160.5 -63s119.5 21 160.5 63s61.5 98 61.5 168v872h404v-879c0 -175.333 -58.5 -317.666 -175.5 -426.999s-267.167 -164 -450.5 -164z
" />
    <glyph glyph-name="V" unicode="V" horiz-adv-x="1482" 
d="M1029 1434h448l-549 -1434h-367l-561 1434h451l292 -892z" />
    <glyph glyph-name="W" unicode="W" horiz-adv-x="2150" 
d="M1718 1434h420l-442 -1434h-347l-275 692l-270 -692h-348l-449 1434h425l232 -827l342 820h136l348 -820z" />
    <glyph glyph-name="X" unicode="X" horiz-adv-x="1359" 
d="M1365 0h-447l-236 440l-238 -440h-448l431 746l-407 688h445l215 -406l217 406h439l-402 -695z" />
    <glyph glyph-name="Y" unicode="Y" horiz-adv-x="1431" 
d="M1417 1434l-501 -873v-561h-402v562l-497 872h438l262 -518l262 518h438z" />
    <glyph glyph-name="Z" unicode="Z" horiz-adv-x="1234" 
d="M629 368h553v-368h-1135v82l531 984h-496v368h1076v-90z" />
    <glyph glyph-name="bracketleft" unicode="[" horiz-adv-x="743" 
d="M142 -334v1987h532v-290h-199v-1404h203v-293h-536z" />
    <glyph glyph-name="backslash" unicode="\" horiz-adv-x="1103" 
d="M1067 -172h-399l-628 1731h399z" />
    <glyph glyph-name="bracketright" unicode="]" horiz-adv-x="743" 
d="M602 -334h-535v293h202v1404h-198v290h531v-1987z" />
    <glyph glyph-name="asciicircum" unicode="^" horiz-adv-x="1189" 
d="M52 694l489 744h110l488 -744h-395l-150 274l-147 -274h-395z" />
    <glyph glyph-name="underscore" unicode="_" horiz-adv-x="1073" 
d="M0 -409v333h1074v-333h-1074z" />
    <glyph glyph-name="grave" unicode="`" horiz-adv-x="1095" 
d="M719 1228h-279l-225 340h388z" />
    <glyph glyph-name="a" unicode="a" horiz-adv-x="1417" 
d="M1013 1107h283.997v-1106h-294l-33 78c-95.333 -76.667 -206.666 -115 -333.999 -115c-111.333 0 -211.166 25.167 -299.499 75.5s-157.166 120.333 -206.499 210s-74 191.167 -74 304.5c0 171.333 54.333 311.833 163 421.5s247.667 164.5 417 164.5
c130 0 242.667 -39.333 338 -118zM686.997 301c71.333 0 130.5 24.001 177.5 72.001s70.5 108 70.5 180s-23.5 132 -70.5 180s-106.167 72 -177.5 72s-130.333 -23.833 -177 -71.5s-70 -107.834 -70 -180.501c0 -72 23.333 -132 70 -180s105.667 -72 177 -72z" />
    <glyph glyph-name="b" unicode="b" horiz-adv-x="1406" 
d="M771 1140c170.667 0 310.167 -55 418.5 -165s162.5 -251 162.5 -423s-54.167 -313 -162.5 -423s-247.833 -165 -418.5 -165c-127.333 0 -238.333 39.333 -333 118l-36 -82h-282v1505h376v-441c82 50.667 173.667 76 275 76zM720 301c70.667 0 129.667 24 177 72
s71 107.667 71 179c0 72 -23.5 132 -70.5 180s-106.167 72 -177.5 72s-130.333 -24 -177 -72s-70 -108 -70 -180s23.333 -131.833 70 -179.5s105.667 -71.5 177 -71.5z" />
    <glyph glyph-name="c" unicode="c" horiz-adv-x="1302" 
d="M667 -36c-87.333 0 -169.002 14.832 -245.002 44.499s-140.667 70.334 -194 122.001s-95.333 114.167 -126 187.5s-46 152 -46 236c0 170.667 57.333 311 172 421s261.334 165 440.001 165c155.333 0 286.5 -44.833 393.5 -134.5s171.167 -208.167 192.5 -355.5h-371
c-16 45.333 -43.667 81.5 -83 108.5s-83.666 40.5 -132.999 40.5c-67.333 0 -122.333 -23 -165 -69s-64 -105 -64 -177s21.5 -131.333 64.5 -178s97.833 -70 164.5 -70c50.667 0 95.5 14.5 134.5 43.5s66.167 68.167 81.5 117.5h375
c-21.333 -150 -86.333 -271.167 -195 -363.5s-240.667 -138.5 -396 -138.5z" />
    <glyph glyph-name="d" unicode="d" horiz-adv-x="1406" 
d="M911 1505h376.999v-1505h-282l-36 82c-94 -79.333 -205.333 -119 -334 -119c-169.333 0 -308.5 55.333 -417.5 166s-163.5 252 -163.5 424s54.5 313.167 163.5 423.5s248.167 165.5 417.5 165.5c100.667 0 192.334 -25.667 275.001 -77v440zM686.999 300
c71.333 0 130.5 24.167 177.5 72.5s70.5 108.5 70.5 180.5s-23.5 132.167 -70.5 180.5s-106.167 72.5 -177.5 72.5s-130.333 -24.167 -177 -72.5s-70 -108.5 -70 -180.5s23.333 -132.167 70 -180.5s105.667 -72.5 177 -72.5z" />
    <glyph glyph-name="e" unicode="e" horiz-adv-x="1312" 
d="M1259 563c0 -34.667 -2.33301 -67.999 -7 -99.999h-822c12.667 -63.333 38.334 -111.333 77.001 -144s88.334 -49 149.001 -49c44.667 0 84.5 9.16699 119.5 27.5s61.833 43.833 80.5 76.5h379c-38.667 -126 -110.167 -225.833 -214.5 -299.5
s-225.833 -110.5 -364.5 -110.5c-113.333 0 -215.833 25.5 -307.5 76.5s-163.5 121.5 -215.5 211.5s-78 190.667 -78 302c0 169.333 56.833 309.666 170.5 420.999s257.167 167 430.5 167c87.333 0 168.666 -15 243.999 -45s139.166 -70.833 191.499 -122.5
s93.333 -113.167 123 -184.5s44.5 -147 44.5 -227zM656 844.001c-55.333 0 -101.833 -14.5 -139.5 -43.5s-64.167 -71.167 -79.5 -126.5h447c-34 113.333 -110 170 -228 170z" />
    <glyph glyph-name="f" unicode="f" horiz-adv-x="884" 
d="M859 1088l0.000976562 -298.999h-248v-789h-381v789h-183v299h188v106c0 112 30.333 198.5 91 259.5s149 91.5 265 91.5h266v-292h-168c-28.667 0 -50.834 -7.83301 -66.501 -23.5s-23.5 -37.834 -23.5 -66.501v-75h260z" />
    <glyph glyph-name="g" unicode="g" horiz-adv-x="1384" 
d="M1006 1106h258v-983c0 -174 -53.167 -311.333 -159.5 -412s-250.833 -151 -433.5 -151c-156.667 0 -287 37.167 -391 111.5s-168.667 177.166 -194 308.499h368c12.667 -35.333 39 -63 79 -83s84.667 -30 134 -30c66 0 121 19.333 165 58s66 90 66 154v33
c-86.667 -55.333 -183 -83 -289 -83c-104 0 -198.333 24 -283 72s-150.834 114.333 -198.501 199s-71.5 179.667 -71.5 285c0 104 23.833 198.333 71.5 283s113.834 151.334 198.501 200.001s179 73 283 73c132.667 0 249 -42.667 349 -128zM672 343
c68.667 0 125 22.667 169 68s66 103.333 66 174c0 70 -22 127.667 -66 173s-100.333 68 -169 68s-125.167 -22.667 -169.5 -68s-66.5 -103 -66.5 -173c0 -70.667 22.167 -128.667 66.5 -174s100.833 -68 169.5 -68z" />
    <glyph glyph-name="h" unicode="h" horiz-adv-x="1320" 
d="M796 1139c126.667 0 227.833 -43 303.5 -129s113.5 -200.667 113.5 -344v-666h-381v622c0 128 -48 192 -144 192c-58 0 -103.667 -19.5 -137 -58.5s-50 -93.833 -50 -164.5v-591h-381v1505h381v-472c86.667 70.667 185 106 295 106z" />
    <glyph glyph-name="i" unicode="i" horiz-adv-x="620" 
d="M123 1244v324h375v-324h-375zM120 0v1106h381v-1106h-381z" />
    <glyph glyph-name="j" unicode="j" horiz-adv-x="645" 
d="M147 1244v324h375v-324h-375zM-87 -421v336h94c44.667 0 78.667 12.5 102 37.5s35 61.167 35 108.5v1045h381v-1076c0 -142 -41.167 -252.667 -123.5 -332s-197.5 -119 -345.5 -119h-143z" />
    <glyph glyph-name="k" unicode="k" horiz-adv-x="1222" 
d="M1243 0h-449l-277 468v-468h-381v1505h381v-832l264 433h427l-344 -527z" />
    <glyph glyph-name="l" unicode="l" horiz-adv-x="620" 
d="M120 0v1505h381v-1505h-381z" />
    <glyph glyph-name="m" unicode="m" horiz-adv-x="1923" 
d="M1422 1139c118 0 213.167 -41.5 285.5 -124.5s108.5 -189.833 108.5 -320.5v-694h-381v647c0 114 -41 171 -123 171c-105.333 0 -158 -70.667 -158 -212v-606h-371v647c0 114 -40.667 171 -122 171c-51.333 0 -90.833 -18.167 -118.5 -54.5s-41.5 -88.833 -41.5 -157.5
v-606h-381v1106h268l54 -119c40.667 47.333 89 84.5 145 111.5s115.333 40.5 178 40.5c66.667 0 127.5 -14.333 182.5 -43s99.833 -68.667 134.5 -120c40 50.667 89.667 90.5 149 119.5s123 43.5 191 43.5z" />
    <glyph glyph-name="n" unicode="n" horiz-adv-x="1320" 
d="M788 1139c128.667 0 231.668 -42.333 309.001 -127s116 -197.334 116 -338.001v-674h-381v622c0 128 -48 192 -144 192c-59.333 0 -105.333 -19.5 -138 -58.5s-49 -93.833 -49 -164.5v-591h-381v1106h267l52 -114c41.333 46.667 92.166 82.834 152.499 108.501
s125.833 38.5 196.5 38.5z" />
    <glyph glyph-name="o" unicode="o" horiz-adv-x="1351" 
d="M675 -36c-118.667 0 -225.332 25.167 -319.999 75.5s-168.334 120.333 -221.001 210s-79 190.834 -79 303.501c0 171.333 58.167 312.333 174.5 423s264.833 166 445.5 166c118 0 224.333 -25 319 -75s168.667 -120 222 -210s80 -191.333 80 -304
s-26.667 -213.834 -80 -303.501s-127.333 -159.667 -222 -210s-201 -75.5 -319 -75.5zM675.002 306c70 0 127.333 23 172 69s67 105.333 67 178s-22.5 132 -67.5 178s-102.167 69 -171.5 69c-70 0 -127.167 -23 -171.5 -69s-66.5 -105.333 -66.5 -178s22.167 -132 66.5 -178
s101.5 -69 171.5 -69z" />
    <glyph glyph-name="p" unicode="p" horiz-adv-x="1400" 
d="M766 1142c169.333 0 308.331 -55.167 416.998 -165.5s163 -251.5 163 -423.5c0 -113.333 -24.667 -215 -74 -305s-118.166 -160 -206.499 -210s-188.166 -75 -299.499 -75c-99.333 0 -189.333 24.333 -270 73v-435h-376v1505h259l48 -88
c95.333 82.667 208.333 124 339 124zM714.998 300c71.333 0 130.5 24 177.5 72s70.5 108.333 70.5 181s-23.5 133 -70.5 181s-106.167 72 -177.5 72s-130.5 -24 -177.5 -72s-70.5 -108.333 -70.5 -181s23.5 -133 70.5 -181s106.167 -72 177.5 -72z" />
    <glyph glyph-name="q" unicode="q" horiz-adv-x="1400" 
d="M1023 1106h258.998v-1505h-377v435c-80.667 -48.667 -170.667 -73 -270 -73c-111.333 0 -211.166 25 -299.499 75s-157.166 120 -206.499 210s-74 191.667 -74 305c0 172 54.333 313.167 163 423.5s247.667 165.5 417 165.5c130.667 0 243.667 -41.333 339 -124z
M685.998 300c71.333 0 130.5 24.167 177.5 72.5s70.5 108.5 70.5 180.5s-23.5 132.167 -70.5 180.5s-106.167 72.5 -177.5 72.5s-130.333 -24.167 -177 -72.5s-70 -108.5 -70 -180.5s23.5 -132.167 70.5 -180.5s105.833 -72.5 176.5 -72.5z" />
    <glyph glyph-name="r" unicode="r" horiz-adv-x="864" 
d="M739 1111l101 0.000976562v-348h-148c-67.333 0 -116 -15.833 -146 -47.5s-45 -82.834 -45 -153.501v-562h-381v1106h255l59 -123c38.667 44.667 82.5 77.167 131.5 97.5s106.833 30.5 173.5 30.5z" />
    <glyph glyph-name="s" unicode="s" horiz-adv-x="1093" 
d="M546 -36c-149.333 0 -267.67 36.1641 -355.003 108.497s-131.666 169.166 -132.999 290.499h367c0 -38.667 12 -68.167 36 -88.5s55 -30.5 93 -30.5c30 0 55.5 7.5 76.5 22.5s31.5 36.167 31.5 63.5c0 28.667 -15.5 49.834 -46.5 63.501s-78.833 25.834 -143.5 36.501
c-29.333 4.66699 -54.833 9.33398 -76.5 14.001s-47.334 11.5 -77.001 20.5s-55 18.833 -76 29.5s-42.833 24.834 -65.5 42.501s-41.167 37.334 -55.5 59.001s-26 48 -35 79s-13.5 65.167 -13.5 102.5c0 110.667 43.333 199.167 130 265.5s201 99.5 343 99.5
c140 0 252.5 -34.167 337.5 -102.5s128.5 -158.833 130.5 -271.5h-357c0 34.667 -10.333 60.667 -31 78s-49 26 -85 26c-30.667 0 -55.334 -7.33301 -74.001 -22s-28 -34.667 -28 -60c0 -12 3.33301 -22.667 10 -32s14.834 -17 24.501 -23s23.334 -11.5 41.001 -16.5
s33.834 -9 48.501 -12l59 -11.5c2.66699 -0.666992 4.66699 -1 6 -1h1h1l1 -1h1h1h1h1c104.667 -18.667 181 -39.334 229 -62.001c114 -54 171 -149 171 -285c0 -115.333 -44.667 -207.833 -134 -277.5s-207.666 -104.5 -354.999 -104.5z" />
    <glyph glyph-name="t" unicode="t" horiz-adv-x="923" 
d="M719 334h147v-334h-262c-122.667 0 -219 35.167 -289 105.5s-105 166.833 -105 289.5v418h-202v89l495 527h79v-323h278v-293h-269v-352c0 -39.333 11.333 -70.333 34 -93s54 -34 94 -34z" />
    <glyph glyph-name="u" unicode="u" horiz-adv-x="1300" 
d="M651 -36c-164 0 -295.999 46.667 -395.999 140s-150 217 -150 371v631h381v-615c0 -58 14.667 -103.333 44 -136s69.666 -49 120.999 -49s91.333 16.333 120 49s43 78 43 136v615h381v-631c0 -154 -49.667 -277.667 -149 -371s-231 -140 -395 -140z" />
    <glyph glyph-name="v" unicode="v" horiz-adv-x="1243" 
d="M834 1106h407l-445 -1106h-345l-450 1106h417l209 -655z" />
    <glyph glyph-name="w" unicode="w" horiz-adv-x="1775" 
d="M1376 1106h389l-352 -1106h-307l-219 495l-214 -495h-307l-361 1106h399l167 -581l262 577h102l276 -582z" />
    <glyph glyph-name="x" unicode="x" horiz-adv-x="1187" 
d="M1201 0h-426l-182 328l-185 -328h-421l367 574l-340 532h420l160 -279l167 279h415l-343 -522z" />
    <glyph glyph-name="y" unicode="y" horiz-adv-x="1269" 
d="M867 1106h408.999l-463 -1057c-51.333 -116 -102.166 -206.5 -152.499 -271.5s-108.833 -112.833 -175.5 -143.5s-148 -46 -244 -46h-131v328h105c72 0 123.667 11.667 155 35s60.333 70 87 140l-457 1015h413l235 -609z" />
    <glyph glyph-name="z" unicode="z" horiz-adv-x="1056" 
d="M575 339h422v-339h-955v57l423 713h-386v336h913v-62z" />
    <glyph glyph-name="braceleft" unicode="{" horiz-adv-x="796" 
d="M564 898c0 -60.667 -15.167 -114.836 -45.5 -162.503s-70.833 -81.167 -121.5 -100.5c50 -19.333 89.667 -52.666 119 -99.999s44 -101.666 44 -162.999v-420h156v-302h-238c-74 0 -137.167 26 -189.5 78s-78.5 115.333 -78.5 190v472c0 30.667 -11 56.834 -33 78.501
s-48.667 32.5 -80 32.5h-42v266h42c31.333 0 58 11 80 33s33 48.667 33 80v477c0 73.333 26.333 136 79 188s115.667 78 189 78h238v-300h-152v-425z" />
    <glyph glyph-name="bar" unicode="|" horiz-adv-x="649" 
d="M143 -389v2109h362v-2109h-362z" />
    <glyph glyph-name="braceright" unicode="}" horiz-adv-x="796" 
d="M699 767l42 0.00195312v-266h-42c-31.333 0 -58 -10.833 -80 -32.5s-33 -47.834 -33 -78.501v-472c0 -74.667 -26.167 -138 -78.5 -190s-115.5 -78 -189.5 -78h-238v302h156v420c0 61.333 14.667 115.666 44 162.999s69 80.666 119 99.999
c-50.667 19.333 -91.167 52.833 -121.5 100.5s-45.5 101.834 -45.5 162.501v425h-152v300h238c73.333 0 136.333 -26 189 -78s79 -114.667 79 -188v-477c0 -31.333 11 -58 33 -80s48.667 -33 80 -33z" />
    <glyph glyph-name="asciitilde" unicode="~" horiz-adv-x="1206" 
d="M793 457c-35.333 0 -69.832 4.66895 -103.499 14.002s-59.5 18.666 -77.5 27.999s-40.333 22.333 -67 39c-48.667 28 -84.334 42 -107.001 42c-24 0 -43.833 -8.33301 -59.5 -25s-23.5 -38.334 -23.5 -65.001v-29h-255v37c0 112 28.5 201 85.5 267s137.167 99 240.5 99
c34.667 0 68.167 -4.83301 100.5 -14.5s56 -18.667 71 -27s36.5 -21.5 64.5 -39.5c18.667 -12 32.167 -20.333 40.5 -25s19.833 -9.66699 34.5 -15s28.667 -8 42 -8c25.333 0 45.333 8.33301 60 25s22 39.667 22 69v33h255v-37c0 -114.667 -28.833 -204.667 -86.5 -270
s-136.5 -98 -236.5 -98z" />
    <glyph glyph-name="uni00A0" unicode="&#xa0;" horiz-adv-x="444" 
 />
    <glyph glyph-name="cent" unicode="&#xa2;" horiz-adv-x="1267" 
d="M1214 445c-16.667 -115.333 -61.832 -213.169 -135.499 -293.502s-165.5 -133.5 -275.5 -159.5v-150h-306v151c-127.333 30 -229.666 93.5 -306.999 190.5s-116 212.167 -116 345.5c0 134 38.5 249.167 115.5 345.5s179.5 159.5 307.5 189.5v171h306v-170
c110 -26 201.167 -78.167 273.5 -156.5s116.833 -174.166 133.5 -287.499h-355c-15.333 41.333 -41.5 74.333 -78.5 99s-78.167 37 -123.5 37c-62.667 0 -114 -21.167 -154 -63.5s-60 -97.5 -60 -165.5c0 -66.667 20.167 -121.667 60.5 -165s91.5 -65 153.5 -65
c47.333 0 89.166 13.333 125.499 40s62.166 62.334 77.499 107.001h358z" />
    <glyph glyph-name="sterling" unicode="&#xa3;" horiz-adv-x="1257" 
d="M868 429l313 -0.000976562v-429h-1100v219l123 56v257h-99v260h99v195c0 125.333 43.333 225.666 130 300.999s202 113 346 113c140 0 250.5 -37.167 331.5 -111.5s121.5 -175.166 121.5 -302.499v-31h-328v25c0 42 -11.333 75 -34 99s-53 36 -91 36
c-38.667 0 -69.667 -12.167 -93 -36.5s-35 -57.166 -35 -98.499v-189h246v-260h-246v-242h316v139z" />
    <glyph glyph-name="yen" unicode="&#xa5;" horiz-adv-x="1423" 
d="M1375 1362l-465 -743h305v-200h-323v-91h323v-188h-323v-140h-362v140h-323v188h323v91h-323v200h302l-460 743h390l271 -490l275 490h390z" />
    <glyph glyph-name="dieresis" unicode="&#xa8;" horiz-adv-x="1288" 
d="M885 1563v-321h-382v321h382z" />
    <glyph glyph-name="copyright" unicode="&#xa9;" horiz-adv-x="1701" 
d="M851 -30c-147.333 0 -280.169 31.5 -398.502 94.5s-211.166 151.333 -278.499 265s-101 242.167 -101 385.5s33.667 272 101 386s160.166 202.667 278.499 266s251.166 95 398.499 95c146.667 0 279.334 -31.667 398.001 -95s211.667 -152 279 -266
s101 -242.667 101 -386s-33.667 -271.833 -101 -385.5s-160.166 -202 -278.499 -265s-251.166 -94.5 -398.499 -94.5zM850.997 172c162.667 0 296 50.667 400 152s156 231.666 156 390.999c0 160 -52.167 290.833 -156.5 392.5s-237.5 152.5 -399.5 152.5
s-295.167 -50.833 -399.5 -152.5s-156.5 -232.5 -156.5 -392.5c0 -159.333 52 -289.666 156 -390.999s237.333 -152 400 -152zM854.997 330c-118 0 -215.332 36.668 -291.999 110.001s-115 166 -115 278c0 114 37.833 207.167 113.5 279.5s173.167 108.5 292.5 108.5
c102.667 0 189.167 -29.333 259.5 -88s112.5 -136.667 126.5 -234h-246c-10.667 29.333 -28.334 52.5 -53.001 69.5s-53.334 25.5 -86.001 25.5c-44.667 0 -81.5 -15 -110.5 -45s-43.5 -68.667 -43.5 -116c0 -46 14.5 -84 43.5 -114s65.833 -45 110.5 -45
c33.333 0 62.333 9.16699 87 27.5s42.334 43.166 53.001 74.499h248c-14.667 -99.333 -57.5 -179.333 -128.5 -240s-157.5 -91 -259.5 -91z" />
    <glyph glyph-name="guillemotleft" unicode="&#xab;" horiz-adv-x="1482" 
d="M375 91l-321 437v37l321 437h424l-328 -455l328 -456h-424zM1002 91l-322 437v37l322 437h423l-328 -455l328 -456h-423z" />
    <glyph glyph-name="uni00AD" unicode="&#xad;" 
d="M112 394v346h750v-346h-750z" />
    <glyph glyph-name="registered" unicode="&#xae;" horiz-adv-x="1048" 
d="M524 1462c130 0 237.667 -42.833 323 -128.5s128 -193.5 128 -323.5s-42.667 -237.833 -128 -323.5s-193 -128.5 -323 -128.5s-237.667 42.833 -323 128.5s-128 193.5 -128 323.5s42.667 237.833 128 323.5s193 128.5 323 128.5zM524 696c90 0 164.667 29.5 224 88.5
s89 134.167 89 225.5c0 90.667 -29.667 165.667 -89 225s-134 89 -224 89c-91.333 0 -166.333 -29.667 -225 -89s-88 -134.333 -88 -225s29.667 -165.667 89 -225s134 -89 224 -89zM715 1067c0 -55.333 -21 -96.333 -63 -123l76 -140h-141l-61 115h-37v-115h-133v419h204
c46 0 83.333 -14.5 112 -43.5s43 -66.5 43 -112.5zM489 1109v-81h47c30 0 45 13.667 45 41c0 26.667 -15 40 -45 40h-47z" />
    <glyph glyph-name="acute" unicode="&#xb4;" horiz-adv-x="1103" 
d="M193 1228l117 340h388l-225 -340h-280z" />
    <glyph glyph-name="cedilla" unicode="&#xb8;" horiz-adv-x="978" 
d="M422 -67c60.667 -6.66699 108.833 -27.335 144.5 -62.002s53.5 -79.334 53.5 -134.001c0 -63.333 -24.5 -114.666 -73.5 -153.999s-112.167 -59 -189.5 -59h-159v167h132c19.333 0 34.833 5.33301 46.5 16s17.5 24.334 17.5 41.001s-5.83301 30.334 -17.5 41.001
s-27.167 16 -46.5 16h-94l-19 25l80 285h177z" />
    <glyph glyph-name="guillemotright" unicode="&#xbb;" horiz-adv-x="1482" 
d="M482 91h-424l328 456l-328 455h424l321 -437v-37zM1108 91h-424l328 456l-328 455h424l321 -437v-37z" />
    <glyph glyph-name="circumflex" unicode="&#x2c6;" horiz-adv-x="1228" 
d="M1092 1228h-297l-149 156l-146 -156h-298l243 340h402z" />
    <glyph glyph-name="ring" unicode="&#x2da;" horiz-adv-x="899" 
d="M449 1191c-80 0 -145.167 23.667 -195.5 71s-75.5 109.333 -75.5 186s25.167 138.667 75.5 186s115.5 71 195.5 71s145.333 -23.667 196 -71s76 -109.333 76 -186s-25.333 -138.667 -76 -186s-116 -71 -196 -71zM449 1346c30.667 0 56 9.66699 76 29s30 43.666 30 72.999
s-10 53.666 -30 72.999s-45.333 29 -76 29s-55.834 -9.66699 -75.501 -29s-29.5 -43.666 -29.5 -72.999s9.83301 -53.666 29.5 -72.999s44.834 -29 75.501 -29z" />
    <glyph glyph-name="tilde" unicode="&#x2dc;" horiz-adv-x="1228" 
d="M756 1232c-8 0 -16.3291 0.500977 -24.9961 1.50098s-16.167 1.83301 -22.5 2.5s-13.833 2.33398 -22.5 5.00098s-15.5 4.5 -20.5 5.5s-12 3.5 -21 7.5l-18 8c-3 1.33301 -9.33301 4.33301 -19 9s-15.334 7.5 -17.001 8.5s-7.33398 4.16699 -17.001 9.5
s-14.834 8 -15.501 8c-42 22.667 -71.667 34 -89 34c-19.333 0 -35.333 -6.66699 -48 -20s-19 -30.666 -19 -51.999v-20h-207v25c0 91.333 22.833 163.666 68.5 216.999s110.5 80 194.5 80c60 0 123.667 -21.333 191 -64c41.333 -26.667 72.666 -40 93.999 -40
c20.667 0 37 6.66699 49 20s18 31.666 18 54.999v23h208v-26c0 -92.667 -23.333 -165.334 -70 -218.001s-110.667 -79 -192 -79z" />
    <glyph glyph-name="uni2000" unicode="&#x2000;" horiz-adv-x="860" 
 />
    <glyph glyph-name="uni2001" unicode="&#x2001;" horiz-adv-x="1720" 
 />
    <glyph glyph-name="uni2002" unicode="&#x2002;" horiz-adv-x="860" 
 />
    <glyph glyph-name="uni2003" unicode="&#x2003;" horiz-adv-x="1720" 
 />
    <glyph glyph-name="uni2004" unicode="&#x2004;" horiz-adv-x="573" 
 />
    <glyph glyph-name="uni2005" unicode="&#x2005;" horiz-adv-x="430" 
 />
    <glyph glyph-name="uni2006" unicode="&#x2006;" horiz-adv-x="286" 
 />
    <glyph glyph-name="uni2007" unicode="&#x2007;" horiz-adv-x="286" 
 />
    <glyph glyph-name="uni2008" unicode="&#x2008;" horiz-adv-x="215" 
 />
    <glyph glyph-name="uni2009" unicode="&#x2009;" horiz-adv-x="344" 
 />
    <glyph glyph-name="uni200A" unicode="&#x200a;" horiz-adv-x="95" 
 />
    <glyph glyph-name="uni2010" unicode="&#x2010;" 
d="M112 394v346h750v-346h-750z" />
    <glyph glyph-name="uni2011" unicode="&#x2011;" 
d="M112 394v346h750v-346h-750z" />
    <glyph glyph-name="figuredash" unicode="&#x2012;" 
d="M112 394v346h750v-346h-750z" />
    <glyph glyph-name="endash" unicode="&#x2013;" horiz-adv-x="1271" 
d="M112 394v346h1049v-346h-1049z" />
    <glyph glyph-name="emdash" unicode="&#x2014;" horiz-adv-x="1693" 
d="M112 394v346h1470v-346h-1470z" />
    <glyph glyph-name="quoteleft" unicode="&#x2018;" horiz-adv-x="567" 
d="M450 1561l0.000976562 -189.001c-52.667 -4.66699 -93 -22.667 -121 -54s-42 -69.666 -42 -114.999h178v-354h-372v324c0 110 32.667 199.833 98 269.5s151.666 109.167 258.999 118.5z" />
    <glyph glyph-name="quoteright" unicode="&#x2019;" horiz-adv-x="552" 
d="M120 756l-0.000976562 189c52.667 4.66699 92.834 22.5 120.501 53.5s41.5 69.5 41.5 115.5h-178v354h372v-324c0 -110 -32.5 -199.833 -97.5 -269.5s-151.167 -109.167 -258.5 -118.5z" />
    <glyph glyph-name="quotesinglbase" unicode="&#x201a;" horiz-adv-x="583" 
d="M121 -358l-0.000976562 189.001c52.667 4.66699 93 22.667 121 54s42 69.666 42 114.999h-178v354h372v-324c0 -110 -32.667 -199.833 -98 -269.5s-151.666 -109.167 -258.999 -118.5z" />
    <glyph glyph-name="quotedblleft" unicode="&#x201c;" horiz-adv-x="1069" 
d="M450 1561l0.000976562 -189.001c-52.667 -4.66699 -93 -22.667 -121 -54s-42 -69.666 -42 -114.999h178v-354h-372v324c0 110 32.667 199.833 98 269.5s151.666 109.167 258.999 118.5zM951.001 1561l0.000976562 -189.001c-52.667 -4.66699 -93 -22.667 -121 -54
s-42 -69.666 -42 -114.999h178v-354h-372v324c0 110 32.667 199.833 98 269.5s151.666 109.167 258.999 118.5z" />
    <glyph glyph-name="quotedblright" unicode="&#x201d;" horiz-adv-x="1054" 
d="M120 756l-0.000976562 189c52.667 4.66699 92.834 22.5 120.501 53.5s41.5 69.5 41.5 115.5h-178v354h372v-324c0 -110 -32.5 -199.833 -97.5 -269.5s-151.167 -109.167 -258.5 -118.5zM620.999 756l-0.000976562 189c52.667 4.66699 92.834 22.5 120.501 53.5
s41.5 69.5 41.5 115.5h-178v354h372v-324c0 -110 -32.5 -199.833 -97.5 -269.5s-151.167 -109.167 -258.5 -118.5z" />
    <glyph glyph-name="quotedblbase" unicode="&#x201e;" horiz-adv-x="1083" 
d="M121 -358l-0.000976562 189.001c52.667 4.66699 93 22.667 121 54s42 69.666 42 114.999h-178v354h372v-324c0 -110 -32.667 -199.833 -98 -269.5s-151.666 -109.167 -258.999 -118.5zM621.999 -357.999v188c52.667 4.66699 93 22.667 121 54s42 70 42 116h-178v354h371
v-324c0 -110 -32.5 -199.833 -97.5 -269.5s-151.167 -109.167 -258.5 -118.5z" />
    <glyph glyph-name="ellipsis" unicode="&#x2026;" horiz-adv-x="1552" 
d="M106 0v354h369v-354h-369zM591 0v354h370v-354h-370zM1076 0v354h370v-354h-370z" />
    <glyph glyph-name="uni202F" unicode="&#x202f;" horiz-adv-x="344" 
 />
    <glyph glyph-name="guilsinglleft" unicode="&#x2039;" horiz-adv-x="856" 
d="M375 91l-321 437v37l321 437h424l-328 -455l328 -456h-424z" />
    <glyph glyph-name="guilsinglright" unicode="&#x203a;" horiz-adv-x="856" 
d="M482 91h-424l328 456l-328 455h424l321 -437v-37z" />
    <glyph glyph-name="uni205F" unicode="&#x205f;" horiz-adv-x="430" 
 />
    <glyph glyph-name="Euro" unicode="&#x20ac;" horiz-adv-x="1353" 
d="M710 396c74 -81.333 175.666 -121.999 304.999 -121.999c74.667 0 142.667 11.667 204 35v-311c-72 -22.667 -149.333 -34 -232 -34c-154.667 0 -290.667 38.333 -408 115s-202.333 181 -255 313h-262l59 234h150c-1.33301 25.333 -2 44.666 -2 57.999
c0 10.667 0.666992 25.334 2 44.001h-206l59 235h196c52 136 137.833 244.167 257.5 324.5s255.834 120.5 408.501 120.5c107.333 0 210.333 -19.333 309 -58l-76 -295c-62 25.333 -132 38 -210 38c-129.333 0 -231.333 -44.667 -306 -134h487l-59 -231h-518
c-1.33301 -18.667 -2 -33.334 -2 -44.001c0 -20 1 -39.333 3 -58h491l-60 -231z" />
    <glyph glyph-name="trademark" unicode="&#x2122;" horiz-adv-x="1830" 
d="M738 1225h-224v-547h-233v547h-224v209h681v-209zM1740 678h-226l-58 400l-203 -400h-60l-202 400l-57 -400h-228l118 756h212l187 -387l190 387h212z" />
    <glyph glyph-name="uni25FC" unicode="&#x25fc;" horiz-adv-x="1105" 
d="M0 1106h1106v-1106h-1106v1106z" />
    <glyph glyph-name="glyph1" horiz-adv-x="0" 
 />
    <glyph glyph-name="glyph2" horiz-adv-x="682" 
 />
    </font>
</defs>
</svg>
