<?xml version="1.0" standalone="no"?>
<!DOCTYPE svg PUBLIC "-//W3C//DTD SVG 1.1//EN" "http://www.w3.org/Graphics/SVG/1.1/DTD/svg11.dtd" >
<svg>
<metadata>
Created by FontForge 20090914 at Tue Feb 26 23:26:59 2019
 By www-data
Modern and elegant sans serif font family.
</metadata>
<defs>
<font id="Mont-Regular" horiz-adv-x="1228" >
  <font-face 
    font-family="Mont Regular"
    font-weight="600"
    font-stretch="normal"
    units-per-em="2048"
    panose-1="0 0 7 0 0 0 0 0 0 0"
    ascent="1638"
    descent="-410"
    x-height="1106"
    cap-height="1434"
    bbox="-86.001 -473.999 2055 1720"
    underline-thickness="102"
    underline-position="-510"
    unicode-range="U+0020-U+25FC"
  />
<missing-glyph horiz-adv-x="748" 
d="M68 0v1365h544v-1365h-544zM136 68h408v1229h-408v-1229z" />
    <glyph glyph-name=".notdef" horiz-adv-x="748" 
d="M68 0v1365h544v-1365h-544zM136 68h408v1229h-408v-1229z" />
    <glyph glyph-name="space" unicode=" " horiz-adv-x="536" 
 />
    <glyph glyph-name="exclam" unicode="!" horiz-adv-x="567" 
d="M196 393v1082h176v-1082h-176zM185 0v218h200v-218h-200z" />
    <glyph glyph-name="quotedbl" unicode="&#x22;" horiz-adv-x="765" 
d="M143 937v501h163v-501h-163zM459 937v501h163v-501h-163z" />
    <glyph glyph-name="numbersign" unicode="#" horiz-adv-x="1314" 
d="M1227 889h-188l-47 -322h188v-151h-213l-62 -414h-161l60 414h-383l-66 -414h-161l65 414h-170v151h195l51 322h-199v147h223l62 398h161l-60 -398h376l61 398h161l-60 -398h167v-147zM829 567l47 322h-378l-51 -322h382z" />
    <glyph glyph-name="dollar" unicode="$" horiz-adv-x="1155" 
d="M1075 393c0 -112.667 -37.166 -205.333 -111.499 -278s-174.5 -115.667 -300.5 -129v-167h-146v166c-138 12 -245.333 57.667 -322 137s-115 183 -115 311h176c0 -87.333 30.833 -156 92.5 -206s141.167 -75 238.5 -75c88 0 162 22.167 222 66.5s90 101.833 90 172.5
c0 19.333 -2.16699 37.333 -6.5 54s-11.666 31.5 -21.999 44.5s-20.666 24.667 -30.999 35s-24.833 20 -43.5 29s-35 16.333 -49 22s-33.667 12 -59 19s-45.666 12.333 -60.999 16s-37.333 8.5 -66 14.5c-56.667 12.667 -100.667 23.167 -132 31.5
s-70.833 22.666 -118.5 42.999s-84 42.666 -109 66.999s-47.167 57.666 -66.5 99.999s-29 90.833 -29 145.5c0 108 35.333 195.667 106 263s167 106.666 289 117.999v156h152v-157c120.667 -13.333 214.667 -57.166 282 -131.499s101 -170.5 101 -288.5h-172
c0 80 -27.333 143 -82 189s-125 69 -211 69c-84.667 0 -154.334 -19 -209.001 -57s-82 -89.333 -82 -154c0 -16 2.16699 -31.167 6.5 -45.5s9.16602 -27 14.499 -38s14.166 -21.667 26.499 -32l32 -26c9 -7 23 -14.333 42 -22l45 -18
c11 -4.33301 28.5 -9.66602 52.5 -15.999s41.667 -10.833 53 -13.5l58 -14l74 -17.5c18 -4.33301 42 -10.666 72 -18.999s54.167 -16.333 72.5 -24s40 -17.667 65 -30s45.167 -25.166 60.5 -38.499s31.5 -29.5 48.5 -48.5s30.167 -39.167 39.5 -60.5
s17.166 -45.833 23.499 -73.5s9.5 -57.5 9.5 -89.5z" />
    <glyph glyph-name="percent" unicode="%" horiz-adv-x="1656" 
d="M393 821c-96.667 0 -175.668 30.333 -237.001 91s-92 138.667 -92 234c0 94.667 30.667 172.167 92 232.5s140.333 90.5 237 90.5c96 0 174.5 -30.167 235.5 -90.5s91.5 -137.833 91.5 -232.5c0 -95.333 -30.667 -173.333 -92 -234s-139.666 -91 -234.999 -91z
M286.999 -8l870 1444h184l-870 -1444h-184zM392.999 961c52.667 0 96.165 17.5 130.498 52.5s51.5 79.167 51.5 132.5s-17.167 97 -51.5 131s-77.833 51 -130.5 51c-53.333 0 -97.166 -17.167 -131.499 -51.5s-51.5 -77.833 -51.5 -130.5c0 -53.333 17.333 -97.5 52 -132.5
s78.334 -52.5 131.001 -52.5zM1266 -11c-96 0 -174.5 30.002 -235.5 90.002s-91.5 137 -91.5 231s30.5 171 91.5 231s139.5 90 235.5 90c95.333 0 173.5 -29.833 234.5 -89.5s91.5 -136.834 91.5 -231.501s-30.5 -171.834 -91.5 -231.501s-139.167 -89.5 -234.5 -89.5z
M1266 130.002c52.667 0 95.834 16.833 129.501 50.5s50.5 76.834 50.5 129.501s-16.833 96 -50.5 130s-76.834 51 -129.501 51s-96 -17 -130 -51s-51 -77.333 -51 -130s17 -95.834 51 -129.501s77.333 -50.5 130 -50.5z" />
    <glyph glyph-name="ampersand" unicode="&#x26;" horiz-adv-x="1275" 
d="M1268 0l-196.999 -0.00390625l-120 129c-114 -100.667 -256 -151 -426 -151c-130.667 0 -235.667 34.833 -315 104.5s-119 161.834 -119 276.501c0 50 7.5 96.333 22.5 139s37 81 66 115s59 63.667 90 89s67.833 51.333 110.5 78
c-60.667 80.667 -102.667 148.5 -126 203.5s-35 110.167 -35 165.5c0 94.667 33 169.5 99 224.5s153.667 82.5 263 82.5c106 0 192 -27.5 258 -82.5s99 -126.833 99 -215.5c0 -40 -6.66699 -78 -20 -114s-29.333 -66.833 -48 -92.5s-44.334 -52.167 -77.001 -79.5
s-62.167 -49.666 -88.5 -66.999s-59.833 -38 -100.5 -62c87.333 -107.333 199 -236 335 -386c50 82.667 75 176.334 75 281.001h148c0 -153.333 -38.333 -286.666 -115 -399.999zM581.001 1319c-61.333 0 -111.167 -15.665 -149.5 -46.998s-57.5 -72.333 -57.5 -123
c0 -66 46.667 -162.667 140 -290l83.5 50.5c21.667 13.667 45.5 30.667 71.5 51s46.5 39.666 61.5 57.999s27.5 39.666 37.5 63.999s15 49.5 15 75.5c0 47.333 -18.833 86 -56.5 116s-86.167 45 -145.5 45zM540 134.998c116.667 0 217.999 36.667 303.999 110
c-170 186 -294 325.667 -372 419c-69.333 -44.667 -122.666 -90 -159.999 -136s-56 -100.333 -56 -163c0 -68.667 26 -124.167 78 -166.5s120.667 -63.5 206 -63.5z" />
    <glyph glyph-name="quotesingle" unicode="'" horiz-adv-x="448" 
d="M143 937v501h163v-501h-163z" />
    <glyph glyph-name="parenleft" unicode="(" horiz-adv-x="616" 
d="M392 -273c-92 132 -163.334 278.666 -214.001 439.999s-76 330 -76 506c0 177.333 25.333 346.5 76 507.5s122 308.167 214 441.5h194c-91.333 -123.333 -166.166 -267.5 -224.499 -432.5s-87.5 -337.167 -87.5 -516.5s29 -351.666 87 -516.999s133 -308.333 225 -429
h-194z" />
    <glyph glyph-name="parenright" unicode=")" horiz-adv-x="616" 
d="M225 -273h-193c92 120 166.833 262.667 224.5 428s86.5 338 86.5 518c0 179.333 -29 351.5 -87 516.5s-132.667 309.167 -224 432.5h193c92 -133.333 163.333 -280.5 214 -441.5s76 -330.167 76 -507.5c0 -176 -25.333 -344.667 -76 -506s-122 -308 -214 -440z" />
    <glyph glyph-name="asterisk" unicode="*" horiz-adv-x="815" 
d="M731 1172l-217 -72l143 -182l-102 -86l-148 193l-147 -193l-105 86l145 182l-214 72l44 126l210 -73v223h135v-223l210 73z" />
    <glyph glyph-name="plus" unicode="+" horiz-adv-x="1075" 
d="M1008 784v-161h-384v-402h-170v402h-386v161h386v391h170v-391h384z" />
    <glyph glyph-name="comma" unicode="," horiz-adv-x="493" 
d="M151 -272v97c71.333 24.667 107 83 107 175h-117v215h211v-200c0 -153.333 -67 -249 -201 -287z" />
    <glyph glyph-name="hyphen" unicode="-" horiz-adv-x="931" 
d="M141 488v168h650v-168h-650z" />
    <glyph glyph-name="period" unicode="." horiz-adv-x="479" 
d="M139 0v218h200v-218h-200z" />
    <glyph glyph-name="slash" unicode="/" horiz-adv-x="888" 
d="M53 -140l599 1699h181l-597 -1699h-183z" />
    <glyph glyph-name="zero" unicode="0" horiz-adv-x="1273" 
d="M638 -24c-162 0 -290.502 63.5 -385.502 190.5s-142.5 298.833 -142.5 515.5c0 217.333 47.333 389 142 515s223.334 189 386.001 189c162 0 290 -63 384 -189s141 -297.667 141 -515c0 -216.667 -47.167 -388.5 -141.5 -515.5s-222.166 -190.5 -383.499 -190.5z
M637.998 137c110 0 196.667 48.334 260 145.001s95 230 95 400c0 169.333 -31.667 302.166 -95 398.499s-150 144.5 -260 144.5c-111.333 0 -198.666 -48 -261.999 -144s-95 -229 -95 -399c0 -170.667 31.667 -304.167 95 -400.5s150.666 -144.5 261.999 -144.5z" />
    <glyph glyph-name="one" unicode="1" horiz-adv-x="677" 
d="M53 1362h428v-1362h-167v1207h-261v155z" />
    <glyph glyph-name="two" unicode="2" horiz-adv-x="1075" 
d="M407 161l583.001 -0.00195312v-161h-916v55l371.5 398.5c87.667 97.667 156.5 181.5 206.5 251.5s81.667 124 95 162s20 80 20 126c0 69.333 -22.167 125.333 -66.5 168s-102.5 64 -174.5 64c-75.333 0 -136.166 -21.667 -182.499 -65s-69.5 -99.666 -69.5 -168.999v-33
h-168v33c0 118.667 38.667 214.167 116 286.5s178.666 108.5 303.999 108.5c121.333 0 220.166 -36.667 296.499 -110s114.5 -167.666 114.5 -282.999c0 -50.667 -6 -97.167 -18 -139.5s-37 -95 -75 -158s-91.333 -136.167 -160 -219.5s-161 -188.333 -277 -315z" />
    <glyph glyph-name="three" unicode="3" horiz-adv-x="1093" 
d="M617 847c112.667 -14.667 203.666 -61.498 272.999 -140.498s104 -174.5 104 -286.5c0 -128.667 -43.667 -234.834 -131 -318.501s-196.333 -125.5 -327 -125.5c-126 0 -230.5 39.333 -313.5 118s-127.833 180 -134.5 304h167
c5.33301 -78.667 33.833 -141.834 85.5 -189.501s116.834 -71.5 195.501 -71.5c83.333 0 152 27.167 206 81.5s81 123.5 81 207.5c0 83.333 -29 152 -87 206s-131.667 81 -221 81h-152v33l315 461h-546v155h809v-39z" />
    <glyph glyph-name="four" unicode="4" horiz-adv-x="1103" 
d="M1047 437v-149h-143v-288h-165v288h-697v39l479 1036h176l-427 -926h471l28 421h135v-421h143z" />
    <glyph glyph-name="five" unicode="5" horiz-adv-x="1075" 
d="M522 861c135.333 0 247.169 -42.1689 335.502 -126.502s132.5 -189.166 132.5 -314.499c0 -128 -43.333 -234 -130 -318s-194.334 -126 -323.001 -126c-127.333 0 -233.333 39.667 -318 119s-129.334 180.333 -134.001 303h167
c4.66699 -77.333 33.5 -140.166 86.5 -188.499s119.167 -72.5 198.5 -72.5c81.333 0 148.833 26.667 202.5 80s80.5 121 80.5 203c0 82.667 -29 151.5 -87 206.5s-130.333 82.5 -217 82.5h-346l-24 27l69 626h682v-155h-542l-38 -346h205z" />
    <glyph glyph-name="six" unicode="6" horiz-adv-x="1136" 
d="M610 886c81.333 0 157.167 -18.167 227.5 -54.5s127.333 -89 171 -158s65.5 -147.167 65.5 -234.5c0 -134.667 -45.833 -245.5 -137.5 -332.5s-208.167 -130.5 -349.5 -130.5c-142.667 0 -259.834 43.333 -351.501 130s-137.5 197.667 -137.5 333
c0 126 49.667 277 149 453l273 483h186c-161.333 -286.667 -259.666 -464.667 -294.999 -534c64 30 130.333 45 199 45zM586.001 137c92 0 167.833 28.498 227.5 85.498s89.5 129.167 89.5 216.5c0 88.667 -29.833 161.334 -89.5 218.001s-135.5 85 -227.5 85
s-168 -28.667 -228 -86s-90 -129.666 -90 -216.999c0 -86.667 30 -158.667 90 -216s136 -86 228 -86z" />
    <glyph glyph-name="seven" unicode="7" horiz-adv-x="1019" 
d="M53 1362h921v-30l-536 -1332h-180l489 1207h-694v155z" />
    <glyph glyph-name="eight" unicode="8" horiz-adv-x="1177" 
d="M881 730c58.667 -32 105.166 -77.998 139.499 -137.998s51.5 -126 51.5 -198c0 -122 -45.167 -222.167 -135.5 -300.5s-206.5 -117.5 -348.5 -117.5c-144.667 0 -261.167 38.333 -349.5 115s-132.5 177.667 -132.5 303c0 70 17.333 135.167 52 195.5
s81.667 107.166 141 140.499c-44 31.333 -79 73.166 -105 125.499s-39 107.833 -39 166.5c0 107.333 40 194.833 120 262.5s184.333 101.5 313 101.5s232.834 -33.5 312.501 -100.5s119.5 -154.833 119.5 -263.5c0 -60 -12.667 -116.333 -38 -169s-59 -93.667 -101 -123z
M587.999 1242c-79.333 0 -143.666 -20.5 -192.999 -61.5s-74 -93.833 -74 -158.5c0 -66.667 24.667 -120.667 74 -162s113.666 -62 192.999 -62c78 0 141.667 20.667 191 62s74 95.333 74 162c0 64.667 -24.667 117.5 -74 158.5s-113 61.5 -191 61.5zM587.999 126.002
c93.333 0 168.999 24.333 226.999 73s87 111.667 87 189c0 79.333 -29 143.5 -87 192.5s-133.667 73.5 -227 73.5c-92 0 -167 -24.5 -225 -73.5s-87 -113.167 -87 -192.5c0 -77.333 28.833 -140.333 86.5 -189s132.834 -73 225.501 -73z" />
    <glyph glyph-name="nine" unicode="9" horiz-adv-x="1130" 
d="M547 1386c142 0 258.5 -43.332 349.5 -129.999s136.5 -197.667 136.5 -333s-48.667 -286.333 -146 -453l-273 -472h-185c170 297.333 267.667 471 293 521c-62.667 -28.667 -128.667 -43 -198 -43c-130 0 -239.333 43.167 -328 129.5s-133 192.166 -133 317.499
c0 134.667 45.5 245.5 136.5 332.5s206.833 130.5 347.5 130.5zM549 622.001c90.667 0 165.5 28.333 224.5 85s88.5 128.667 88.5 216c0 86.667 -29.5 158.667 -88.5 216s-133.833 86 -224.5 86c-91.333 0 -166.833 -28.5 -226.5 -85.5s-89.5 -129.167 -89.5 -216.5
s29.833 -159.333 89.5 -216s135.167 -85 226.5 -85z" />
    <glyph glyph-name="colon" unicode=":" horiz-adv-x="485" 
d="M143 775v218h200v-218h-200zM143 0v218h200v-218h-200z" />
    <glyph glyph-name="semicolon" unicode=";" horiz-adv-x="503" 
d="M152 777v218h199v-218h-199zM156 -272v97c71.333 24.667 107 83 107 175h-117v215h211v-200c0 -153.333 -67 -249 -201 -287z" />
    <glyph glyph-name="less" unicode="&#x3c;" horiz-adv-x="1087" 
d="M936 1274v-195l-604 -382l604 -378v-195l-880 553v32z" />
    <glyph glyph-name="equal" unicode="=" horiz-adv-x="1275" 
d="M147 842v161h983v-161h-983zM147 392v161h983v-161h-983z" />
    <glyph glyph-name="greater" unicode="&#x3e;" horiz-adv-x="1087" 
d="M150 1274l881 -565v-32l-881 -553v195l605 378l-605 382v195z" />
    <glyph glyph-name="question" unicode="?" horiz-adv-x="1054" 
d="M405 393l0.00292969 46.0029c0 32 2.5 61.667 7.5 89s13.333 52.666 25 75.999s22.334 43 32.001 59s24.667 34 45 54s35.333 34.167 45 42.5l50.5 42.5c29.333 22.667 52.166 41.5 68.499 56.5s34.166 34.5 53.499 58.5s33.5 50.333 42.5 79s13.5 60.334 13.5 95.001
c0 79.333 -25.833 142.833 -77.5 190.5s-118.167 71.5 -199.5 71.5c-78 0 -144.167 -22.5 -198.5 -67.5s-83.833 -105.167 -88.5 -180.5h-164c3.33301 84.667 26.5 158.667 69.5 222s97.667 110.666 164 141.999s138.833 47 217.5 47c83.333 0 158.5 -16.667 225.5 -50
s120.667 -82.666 161 -147.999s60.5 -141 60.5 -227c0 -40 -4.33301 -77.5 -13 -112.5s-18.834 -64.333 -30.501 -88s-28.334 -47.834 -50.001 -72.501s-40 -43.834 -55 -57.501s-35.5 -30.834 -61.5 -51.501l-52.5 -44.5c-10.333 -9 -24.833 -23.5 -43.5 -43.5
s-32 -37.667 -40 -53s-15.5 -34.5 -22.5 -57.5s-10.5 -47.167 -10.5 -72.5v-45h-174zM392.003 0.00292969v218h200v-218h-200z" />
    <glyph glyph-name="at" unicode="@" horiz-adv-x="2072" 
d="M1031 1394c183.333 0 346.501 -36.833 489.501 -110.5s254 -177 333 -310s118.5 -284.833 118.5 -455.5c0 -134.667 -32.667 -244.5 -98 -329.5s-149.333 -127.5 -252 -127.5c-59.333 0 -112 15 -158 45s-79.333 70.333 -100 121
c-40 -59.333 -91.833 -105.833 -155.5 -139.5s-133.834 -50.5 -210.501 -50.5c-132 0 -241.5 44.333 -328.5 133s-130.5 199.667 -130.5 333s43.5 244.166 130.5 332.499s196.5 132.5 328.5 132.5c71.333 0 137 -14.5 197 -43.5s110.333 -69.833 151 -122.5l25 120h92v-540
c0 -55.333 15.167 -100.5 45.5 -135.5s69.833 -52.5 118.5 -52.5c61.333 0 111 30 149 90s57 138 57 234c0 144.667 -33.5 273.334 -100.5 386.001s-161 200.167 -282 262.5s-259.5 93.5 -415.5 93.5s-295 -31.833 -417 -95.5s-216.833 -153 -284.5 -268
s-101.5 -245.833 -101.5 -392.5c0 -220.667 70.667 -399.5 212 -536.5s326 -205.5 554 -205.5c141.333 0 263.666 30 366.999 90v-138c-118.667 -58.667 -246.667 -88 -384 -88c-172.667 0 -326.5 37 -461.5 111s-240 177.667 -315 311s-112.5 285.333 -112.5 456
c0 130.667 23 251.167 69 361.5s109.833 204.333 191.5 282s180.834 138.167 297.501 181.5s243.667 65 381 65zM1009 185c91.333 0 166.665 30 225.998 90s89 136.333 89 229s-29.667 168.834 -89 228.501s-134.666 89.5 -225.999 89.5c-90 0 -165 -30.333 -225 -91
s-90 -136.334 -90 -227.001c0 -91.333 29.833 -167.333 89.5 -228s134.834 -91 225.501 -91z" />
    <glyph glyph-name="A" unicode="A" horiz-adv-x="1427" 
d="M1197 0l-142 343h-689l-140 -343h-191l586 1434h168l603 -1434h-195zM708 1186l-275 -678h555z" />
    <glyph glyph-name="B" unicode="B" horiz-adv-x="1320" 
d="M990 744c66 -28.667 118.167 -74.334 156.5 -137.001s57.5 -133.334 57.5 -212.001c0 -111.333 -41.667 -205 -125 -281s-186.333 -114 -309 -114h-574v1434h566c116.667 0 213.167 -35 289.5 -105s114.5 -157.333 114.5 -262c0 -65.333 -16 -127.666 -48 -186.999
s-74.667 -104.666 -128 -135.999zM983 1043c0 60.667 -21.668 111.667 -65.001 153s-96.666 62 -159.999 62h-384v-430h385c63.333 0 116.5 20.833 159.5 62.5s64.5 92.5 64.5 152.5zM767.999 178c72 0 131.667 22.501 179 67.501s71 101.5 71 169.5
c0 67.333 -23.833 123.666 -71.5 168.999s-107.167 68 -178.5 68h-394v-474h394z" />
    <glyph glyph-name="C" unicode="C" horiz-adv-x="1589" 
d="M833 -22c-140 0 -266 31.501 -378 94.501s-199.5 150.833 -262.5 263.5s-94.5 239.667 -94.5 381s31.5 268.333 94.5 381s150.5 200.5 262.5 263.5s238 94.5 378 94.5c166 0 310.333 -45.833 433 -137.5s204.667 -214.834 246 -369.501h-183
c-38 103.333 -100.833 184.333 -188.5 243s-190.167 88 -307.5 88c-160.667 0 -292.667 -52.667 -396 -158s-155 -240.333 -155 -405s51.667 -299.667 155 -405s235.333 -158 396 -158c120.667 0 225.334 31.167 314.001 93.5s151.667 148.5 189 258.5h183
c-40.667 -162 -122.834 -290.5 -246.501 -385.5s-270.167 -142.5 -439.5 -142.5z" />
    <glyph glyph-name="D" unicode="D" horiz-adv-x="1501" 
d="M674 1434c138.667 0 263.5 -30.6689 374.5 -92.002s197.5 -146.666 259.5 -255.999s93 -232.333 93 -369s-31 -259.667 -93 -369s-148.5 -194.666 -259.5 -255.999s-235.833 -92 -374.5 -92h-478v1434h478zM668 167.998c160 0 291.5 51.832 394.5 155.499
s154.5 234.834 154.5 393.501c0 104.667 -23.167 198.667 -69.5 282s-111.333 148.5 -195 195.5s-178.5 70.5 -284.5 70.5h-293v-1097h293z" />
    <glyph glyph-name="E" unicode="E" horiz-adv-x="1132" 
d="M375 172h655v-172h-834v1434h812v-171h-633v-443h579v-166h-579v-482z" />
    <glyph glyph-name="F" unicode="F" horiz-adv-x="1071" 
d="M1001 1263h-626v-473h573v-167h-573v-623h-179v1434h805v-171z" />
    <glyph glyph-name="G" unicode="G" horiz-adv-x="1634" 
d="M774 712h769.002c-2 -106.667 -21.333 -205.5 -58 -296.5s-86.167 -168.833 -148.5 -233.5s-137.5 -115.167 -225.5 -151.5s-183 -54.5 -285 -54.5c-138.667 0 -263.5 31.833 -374.5 95.5s-197.667 152 -260 265s-93.5 239.833 -93.5 380.5
c0 140 31.167 266.333 93.5 379s148.666 200.834 258.999 264.501s234.166 95.5 371.499 95.5c172.667 0 324.334 -48.833 455.001 -146.5s211.667 -222.834 243 -375.501h-185c-30.667 103.333 -92.834 186.833 -186.501 250.5s-201.167 95.5 -322.5 95.5
c-158.667 0 -289 -52.667 -391 -158s-153 -240.333 -153 -405c0 -166.667 50.333 -302.5 151 -407.5s231.667 -157.5 393 -157.5c131.333 0 244.5 35.5 339.5 106.5s155.5 165.167 181.5 282.5h-573v171z" />
    <glyph glyph-name="H" unicode="H" horiz-adv-x="1492" 
d="M1117 1434h180v-1434h-180v651h-742v-651h-179v1434h179v-610h742v610z" />
    <glyph glyph-name="I" unicode="I" horiz-adv-x="571" 
d="M196 0v1434h179v-1434h-179z" />
    <glyph glyph-name="J" unicode="J" horiz-adv-x="1222" 
d="M553 -24c-142.667 0 -260.999 47.167 -354.999 141.5s-141 213.5 -141 357.5v29h177v-21c0 -96 30.167 -175.167 90.5 -237.5s136.5 -93.5 228.5 -93.5c89.333 0 163.666 31.333 222.999 94s89 141.667 89 237v951h178v-959c0 -144.667 -46.167 -264 -138.5 -358
s-209.5 -141 -351.5 -141z" />
    <glyph glyph-name="K" unicode="K" horiz-adv-x="1300" 
d="M1071 0l-505 657h-191v-657h-179v1434h179v-609h190l460 609h229l-525 -690l572 -744h-230z" />
    <glyph glyph-name="L" unicode="L" horiz-adv-x="1048" 
d="M375 168h630v-168h-809v1434h179v-1266z" />
    <glyph glyph-name="M" unicode="M" horiz-adv-x="1959" 
d="M1868 0h-183l-187 1120l-494 -1083h-48l-495 1082l-188 -1119h-183l241 1434h174l473 -1052l476 1052h177z" />
    <glyph glyph-name="N" unicode="N" horiz-adv-x="1533" 
d="M1163 1434h176v-1434h-151l-816 1119v-1119h-176v1434h162l805 -1106v1106z" />
    <glyph glyph-name="O" unicode="O" horiz-adv-x="1697" 
d="M848 -24c-142.667 0 -271.167 32.167 -385.5 96.5s-203.666 153 -267.999 266s-96.5 239.167 -96.5 378.5s32.167 265.5 96.5 378.5s153.666 201.667 267.999 266s242.833 96.5 385.5 96.5s271.334 -32.167 386.001 -96.5s204.167 -153 268.5 -266
s96.5 -239.167 96.5 -378.5s-32.167 -265.5 -96.5 -378.5s-153.833 -201.667 -268.5 -266s-243.334 -96.5 -386.001 -96.5zM848 152c107.333 0 204.333 24.5 291 73.5s154.334 116.667 203.001 203s73 182.5 73 288.5s-24.333 202.167 -73 288.5s-116.334 154 -203.001 203
s-183.667 73.5 -291 73.5c-106.667 0 -203.334 -24.667 -290.001 -74s-154.334 -117 -203.001 -203s-73 -182 -73 -288s24.333 -202 73 -288s116.334 -153.667 203.001 -203s183.334 -74 290.001 -74z" />
    <glyph glyph-name="P" unicode="P" horiz-adv-x="1249" 
d="M710 1434c135.333 0 248.5 -43.834 339.5 -131.501s136.5 -197.167 136.5 -328.5s-45.333 -240.666 -136 -327.999s-204 -131 -340 -131h-335v-515h-179v1434h514zM700 688.999c88 0 160.333 27 217 81s85 122 85 204s-28.333 150.167 -85 204.5s-129 81.5 -217 81.5
h-325v-571h325z" />
    <glyph glyph-name="Q" unicode="Q" horiz-adv-x="1697" 
d="M1624 -171h-219.001l-198 230c-109.333 -55.333 -229 -83 -359 -83c-142.667 0 -271.167 32.167 -385.5 96.5s-203.666 153 -267.999 266s-96.5 239.167 -96.5 378.5s32.167 265.5 96.5 378.5s153.666 201.667 267.999 266s242.833 96.5 385.5 96.5
s271.334 -32.167 386.001 -96.5s204.167 -153 268.5 -266s96.5 -239.167 96.5 -378.5c0 -114.667 -22 -220.667 -66 -318s-106 -180 -186 -248zM847.999 152c86.667 0 166 15.667 238 47l-335 391h219l259 -301c58.667 52 104.334 114.833 137.001 188.5s49 153.5 49 239.5
c0 106 -24.333 202.167 -73 288.5s-116.334 154 -203.001 203s-183.667 73.5 -291 73.5c-106.667 0 -203.334 -24.667 -290.001 -74s-154.334 -117 -203.001 -203s-73 -182 -73 -288s24.333 -202 73 -288s116.334 -153.667 203.001 -203s183.334 -74 290.001 -74z" />
    <glyph glyph-name="R" unicode="R" horiz-adv-x="1318" 
d="M1031 0l-329 561h-327v-561h-179v1434h543c134.667 0 246.167 -41.333 334.5 -124s132.5 -187.667 132.5 -315c0 -100 -28.667 -186.833 -86 -260.5s-134 -124.5 -230 -152.5l343 -582h-202zM375 1263v-532h355c87.333 0 158 24.833 212 74.5s81 113.5 81 191.5
c0 77.333 -27.167 141 -81.5 191s-124.833 75 -211.5 75h-355z" />
    <glyph glyph-name="S" unicode="S" horiz-adv-x="1222" 
d="M623 -18c-158.667 0 -286.501 41.6738 -383.501 125.007s-145.5 195 -145.5 335h183c0 -87.333 32 -156.5 96 -207.5s146.667 -76.5 248 -76.5c92 0 168.667 22.5 230 67.5s92 104.833 92 179.5c0 18 -2.33301 35.167 -7 51.5s-10 30.666 -16 42.999
s-15.5 24.166 -28.5 35.499s-24.667 21 -35 29s-25.5 16.167 -45.5 24.5l-48.5 20c-12.333 5 -31.166 10.833 -56.499 17.5l-57 15c-12.667 3.33301 -33.334 8.33301 -62.001 15c-122 29.333 -209.333 56.333 -262 81c-115.333 55.333 -181.666 138.333 -198.999 249
c-3.33301 21.333 -5 43.666 -5 66.999c0 123.333 44 220.666 132 291.999s206.667 107 356 107c148 0 264.833 -38.167 350.5 -114.5s128.5 -179.833 128.5 -310.5h-178c0 78 -28.5 139.667 -85.5 185s-130.167 68 -219.5 68c-88.667 0 -161.5 -19.833 -218.5 -59.5
s-85.5 -92.834 -85.5 -159.501c0 -22 3.5 -42.167 10.5 -60.5s15.5 -34.333 25.5 -48s24.667 -26.667 44 -39s37 -22.333 53 -30s38.167 -15.834 66.5 -24.501s51.833 -15.334 70.5 -20.001l78 -19c122 -30 209.333 -57.333 262 -82c118.667 -54.667 188.667 -137 210 -247
c5.33301 -26.667 8 -54.667 8 -84c0 -88 -22.5 -164.5 -67.5 -229.5s-105.333 -113.833 -181 -146.5s-161.5 -49 -257.5 -49z" />
    <glyph glyph-name="T" unicode="T" horiz-adv-x="1138" 
d="M1095 1434v-169h-436v-1265h-180v1265h-436v169h1052z" />
    <glyph glyph-name="U" unicode="U" horiz-adv-x="1482" 
d="M743 -24c-162.667 0 -297.332 52.3311 -403.999 156.998s-160 238.334 -160 401.001v900h182v-887c0 -117.333 35.5 -212.5 106.5 -285.5s162.833 -109.5 275.5 -109.5c111.333 0 202.5 36.5 273.5 109.5s106.5 168.167 106.5 285.5v887h182v-900
c0 -107.333 -24.333 -203.666 -73 -288.999s-115.834 -151.5 -201.501 -198.5s-181.5 -70.5 -287.5 -70.5z" />
    <glyph glyph-name="V" unicode="V" horiz-adv-x="1396" 
d="M1156 1434h197l-570 -1434h-166l-580 1434h199l464 -1164z" />
    <glyph glyph-name="W" unicode="W" horiz-adv-x="2103" 
d="M1865 1434h190l-452 -1434h-159l-394 1019l-385 -1019h-158l-462 1434h191l357 -1139l420 1111h72l432 -1112z" />
    <glyph glyph-name="X" unicode="X" 
d="M1214 0h-203l-396 606l-393 -606h-205l488 751l-450 683h203l358 -547l356 547h202l-447 -689z" />
    <glyph glyph-name="Y" unicode="Y" horiz-adv-x="1347" 
d="M1295 1434l-529 -862v-572h-185v572l-525 862h196l422 -693l424 693h197z" />
    <glyph glyph-name="Z" unicode="Z" horiz-adv-x="1153" 
d="M339 168h760v-168h-1046v31l740 1234h-708v169h992v-35z" />
    <glyph glyph-name="bracketleft" unicode="[" horiz-adv-x="686" 
d="M196 -283v1904h436v-148h-274v-1605h278v-151h-440z" />
    <glyph glyph-name="backslash" unicode="\" horiz-adv-x="888" 
d="M836 -140h-184l-597 1699h182z" />
    <glyph glyph-name="bracketright" unicode="]" horiz-adv-x="686" 
d="M490 -283h-441v151h278v1605h-274v148h437v-1904z" />
    <glyph glyph-name="asciicircum" unicode="^" horiz-adv-x="1091" 
d="M67 694l465 744h31l461 -744h-197l-281 455l-282 -455h-197z" />
    <glyph glyph-name="underscore" unicode="_" horiz-adv-x="1056" 
d="M0 -266v167h1057v-167h-1057z" />
    <glyph glyph-name="grave" unicode="`" 
d="M547 1236h-137l-187 311h186z" />
    <glyph glyph-name="a" unicode="a" horiz-adv-x="1431" 
d="M1118 1106l138.999 0.000976562v-1106h-144l-19 168c-52 -60.667 -115.167 -107.834 -189.5 -141.501s-155.833 -50.5 -244.5 -50.5c-107.333 0 -204.666 25 -291.999 75s-155.833 119.167 -205.5 207.5s-74.5 186.5 -74.5 294.5c0 165.333 54.5 302.833 163.5 412.5
s245.167 164.5 408.5 164.5c88.667 0 170.667 -17 246 -51s139 -81.667 191 -143zM672.999 144.001c116.667 0 213.5 38.833 290.5 116.5s115.5 175.167 115.5 292.5s-38.5 214.833 -115.5 292.5s-173.833 116.5 -290.5 116.5s-213.667 -39 -291 -117
s-116 -175.333 -116 -292s38.667 -214 116 -292s174.333 -117 291 -117z" />
    <glyph glyph-name="b" unicode="b" horiz-adv-x="1417" 
d="M759 1130c109.333 0 207.5 -25 294.5 -75s154.667 -118.833 203 -206.5s72.5 -186.167 72.5 -295.5c0 -165.333 -53.667 -302.833 -161 -412.5s-243.666 -164.5 -408.999 -164.5c-85.333 0 -164.333 15.833 -237 47.5s-135.334 76.167 -188.001 133.5l-24 -157h-135v1501
h175v-535c52 52 113 92.333 183 121s145.333 43 226 43zM746 144c116.667 0 213.5 38.833 290.5 116.5s115.5 175.167 115.5 292.5s-38.5 214.833 -115.5 292.5s-173.833 116.5 -290.5 116.5s-213.834 -39 -291.501 -117s-116.5 -175.333 -116.5 -292
c0 -116 38.833 -213.167 116.5 -291.5s174.834 -117.5 291.501 -117.5z" />
    <glyph glyph-name="c" unicode="c" horiz-adv-x="1269" 
d="M663 -24c-107.333 0 -204.997 25 -292.997 75s-157 119.167 -207 207.5s-75 186.5 -75 294.5c0 108.667 25 207 75 295s119 157 207 207s185.667 75 293 75c131.333 0 245.166 -36 341.499 -108s161.5 -168.333 195.5 -289h-172
c-32.667 71.333 -81.334 127.333 -146.001 168s-137.667 61 -219 61c-113.333 0 -207.833 -39.167 -283.5 -117.5s-113.5 -175.5 -113.5 -291.5c0 -115.333 38 -212.333 114 -291s170.333 -118 283 -118c81.333 0 153.666 20.667 216.999 62s112 99 146 173h176
c-34 -122 -99.833 -219.667 -197.5 -293s-211.5 -110 -341.5 -110z" />
    <glyph glyph-name="d" unicode="d" horiz-adv-x="1417" 
d="M1068 1501h173.998v-1501h-135l-23 157c-52 -57.333 -114.667 -101.833 -188 -133.5s-152.666 -47.5 -237.999 -47.5c-165.333 0 -301.666 54.833 -408.999 164.5s-161 247.167 -161 412.5c0 109.333 24.167 207.833 72.5 295.5s116 156.5 203 206.5s185.167 75 294.5 75
c81.333 0 157 -14.333 227 -43s131 -69 183 -121v535zM671.998 144c116.667 0 213.667 39.167 291 117.5s116 175.5 116 291.5c0 116.667 -38.667 214 -116 292s-174.333 117 -291 117s-213.5 -38.833 -290.5 -116.5s-115.5 -175.167 -115.5 -292.5
s38.5 -214.833 115.5 -292.5s173.833 -116.5 290.5 -116.5z" />
    <glyph glyph-name="e" unicode="e" horiz-adv-x="1294" 
d="M1209 548c0 -20 -1 -40.668 -3 -62.001h-943c13.333 -102.667 55.5 -185 126.5 -247s158.5 -93 262.5 -93c76 0 143.667 16.833 203 50.5s106.333 80.5 141 140.5h184c-47.333 -114 -117.166 -202.667 -209.499 -266s-198.5 -95 -318.5 -95
c-105.333 0 -201.166 25 -287.499 75s-154 119 -203 207s-73.5 186.333 -73.5 295c0 108 24.5 206.167 73.5 294.5s116.667 157.5 203 207.5s182.166 75 287.499 75c109.333 0 206.666 -26 291.999 -78s150.833 -122.167 196.5 -210.5s68.5 -186.166 68.5 -293.499z
M652 964.999c-100 0 -184.667 -28.832 -254 -86.499s-113 -134.834 -131 -231.501h768c-18.667 98 -62.5 175.5 -131.5 232.5s-152.833 85.5 -251.5 85.5z" />
    <glyph glyph-name="f" unicode="f" horiz-adv-x="792" 
d="M767 1098v-146h-339v-952h-174v952h-218v146h218v90c0 119.333 28.667 208 86 266s147 87 269 87h156v-141h-125c-78.667 0 -134.667 -16.5 -168 -49.5s-50 -88.5 -50 -166.5v-86h345z" />
    <glyph glyph-name="g" unicode="g" horiz-adv-x="1380" 
d="M1089 1106h116.001v-951c0 -178.667 -48.333 -319 -145 -421s-229 -153 -397 -153c-135.333 0 -249 33.167 -341 99.5s-153 158.5 -183 276.5h174c24 -68 67.833 -121.167 131.5 -159.5s136.5 -57.5 218.5 -57.5c112 0 202 35 270 105s102 165.667 102 287v68
c-50 -52 -109.667 -92.5 -179 -121.5s-144 -43.5 -224 -43.5c-100.667 0 -192.667 24 -276 72s-148.833 113.833 -196.5 197.5s-71.5 176.167 -71.5 277.5s23.833 194 71.5 278s113.167 150 196.5 198s175.333 72 276 72c87.333 0 168.166 -17.333 242.499 -52
s136.833 -82.667 187.5 -144zM651.001 202c110.667 0 202 35.832 274 107.499s108 162.5 108 272.5s-36 201 -108 273s-163.333 108 -274 108s-202.5 -36.167 -275.5 -108.5s-109.5 -163.166 -109.5 -272.499c0 -108.667 36.5 -199.167 109.5 -271.5
s164.833 -108.5 275.5 -108.5z" />
    <glyph glyph-name="h" unicode="h" horiz-adv-x="1314" 
d="M729 1130c131.333 0 235.334 -42.168 312.001 -126.501s115 -198.166 115 -341.499v-662h-174v621c0 112 -25.667 198.333 -77 259s-125 91 -221 91c-94.667 0 -174 -35.333 -238 -106s-96 -158 -96 -262v-603h-175v1501h175v-546
c43.333 55.333 97.666 98.333 162.999 129s137.333 46 216 46z" />
    <glyph glyph-name="i" unicode="i" horiz-adv-x="524" 
d="M168 1297v200h189v-200h-189zM175 0v1106h175v-1106h-175z" />
    <glyph glyph-name="j" unicode="j" horiz-adv-x="548" 
d="M195 1297v200h188v-200h-188zM-86 -395l-0.000976562 158.999h66c70.667 0 125 19.333 163 58s57 93.334 57 164.001v1120h174v-1133c0 -110.667 -33.667 -199.667 -101 -267s-156.666 -101 -267.999 -101h-91z" />
    <glyph glyph-name="k" unicode="k" horiz-adv-x="1132" 
d="M905 0l-379 496h-158v-496h-174v1501h174v-844h161l341 449h212l-403 -530l444 -576h-218z" />
    <glyph glyph-name="l" unicode="l" horiz-adv-x="524" 
d="M175 0v1501h175v-1501h-175z" />
    <glyph glyph-name="m" unicode="m" horiz-adv-x="1945" 
d="M1398 1130c116 0 209.669 -39.332 281.002 -117.999s107 -180.334 107 -305.001v-707h-173l-1 653c0 100 -22 178 -66 234s-105.333 84 -184 84c-81.333 0 -150.833 -34.5 -208.5 -103.5s-86.5 -153.833 -86.5 -254.5v-613h-170v653c0 100 -22 178 -66 234
s-106 84 -186 84c-81.333 0 -150.833 -34.5 -208.5 -103.5s-86.5 -153.833 -86.5 -254.5v-613h-175v1106h126l28 -152c42.667 55.333 95.167 98.5 157.5 129.5s128.166 46.5 197.499 46.5c77.333 0 145.333 -18.667 204 -56s103.667 -88.666 135 -153.999
c41.333 65.333 95.166 116.666 161.499 153.999s137.5 56 213.5 56z" />
    <glyph glyph-name="n" unicode="n" horiz-adv-x="1314" 
d="M729 1130c129.333 0 232.832 -43.668 310.499 -131.001s116.5 -199.666 116.5 -336.999v-662h-174v621c0 112 -25.667 198.333 -77 259s-125 91 -221 91c-94.667 0 -174 -35.333 -238 -106s-96 -158 -96 -262v-603h-175v1106h124l34 -173c42 62 97.333 110.333 166 145
s145.334 52 230.001 52z" />
    <glyph glyph-name="o" unicode="o" horiz-adv-x="1349" 
d="M674 -24c-167.333 0 -306.834 54.833 -418.501 164.5s-167.5 247.167 -167.5 412.5c0 109.333 25.333 208 76 296s120.834 156.833 210.501 206.5s189.5 74.5 299.5 74.5s209.833 -24.833 299.5 -74.5s160 -118.667 211 -207s76.5 -186.833 76.5 -295.5
s-25.5 -207.167 -76.5 -295.5s-121.333 -157.333 -211 -207s-189.5 -74.5 -299.5 -74.5zM673.999 144c118.667 0 216.5 38.5 293.5 115.5s115.5 174.833 115.5 293.5s-38.5 216.5 -115.5 293.5s-174.833 115.5 -293.5 115.5s-216.334 -38.5 -293.001 -115.5
s-115 -174.833 -115 -293.5s38.333 -216.5 115 -293.5s174.334 -115.5 293.001 -115.5z" />
    <glyph glyph-name="p" unicode="p" horiz-adv-x="1419" 
d="M763 1130c108.667 0 206.333 -25 293 -75s154.167 -118.833 202.5 -206.5s72.5 -186.167 72.5 -295.5c0 -165.333 -53.667 -302.833 -161 -412.5s-243 -164.5 -407 -164.5c-81.333 0 -157.5 15 -228.5 45s-132.5 72.333 -184.5 127v-543h-175v1501h120l35 -169
c52 60.667 115.333 108 190 142s155.667 51 243 51zM749.999 144c116.667 0 213.334 38.833 290.001 116.5s115 175.167 115 292.5s-38.333 214.833 -115 292.5s-173.334 116.5 -290.001 116.5s-213.834 -39 -291.501 -117s-116.5 -175.333 -116.5 -292
s38.833 -214 116.5 -292s174.834 -117 291.501 -117z" />
    <glyph glyph-name="q" unicode="q" horiz-adv-x="1419" 
d="M1124 1106l120.002 0.000976562v-1501h-174v543c-52 -54.667 -113.333 -97 -184 -127s-147 -45 -229 -45c-80.667 0 -156.334 14.667 -227.001 44s-131 69.5 -181 120.5s-89.333 112.167 -118 183.5s-43 147.666 -43 228.999c0 166 53.833 303.667 161.5 413
s243.5 164 407.5 164c87.333 0 168.166 -17 242.499 -51s137.5 -81.333 189.5 -142zM670.002 144.001c116.667 0 213.667 39 291 117s116 175.333 116 292s-38.667 214 -116 292s-174.333 117 -291 117s-213.5 -38.833 -290.5 -116.5s-115.5 -175.167 -115.5 -292.5
s38.5 -214.833 115.5 -292.5s173.833 -116.5 290.5 -116.5z" />
    <glyph glyph-name="r" unicode="r" horiz-adv-x="790" 
d="M681 1112h98v-165h-113c-100 0 -177.667 -30.667 -233 -92s-83 -146 -83 -254v-601h-175v1106h124l28 -168c80 116 198 174 354 174z" />
    <glyph glyph-name="s" unicode="s" horiz-adv-x="1050" 
d="M525 -24c-130.667 0 -235.659 32.667 -314.992 98s-121.333 153.666 -126 264.999h170c4.66699 -64 32.167 -113.667 82.5 -149s115.166 -53 194.499 -53c76.667 0 139.167 15.333 187.5 46s72.5 72.667 72.5 126c0 20.667 -3.33301 39.334 -10 56.001
s-17.334 30.834 -32.001 42.501s-29.334 21.667 -44.001 30s-34.834 15.833 -60.501 22.5s-47.667 11.834 -66 15.501s-43.166 8.16699 -74.499 13.5c-24.667 4 -43.834 7.33301 -57.501 10s-32.334 6.66699 -56.001 12s-42.5 10.333 -56.5 15l-52 18
c-20.667 7.33301 -37.167 15.333 -49.5 24l-41.5 30.5c-15.333 11.667 -27.5 24.5 -36.5 38.5s-17.833 29.5 -26.5 46.5s-14.834 36.167 -18.501 57.5s-5.5 44.333 -5.5 69c0 95.333 38.333 172.5 115 231.5s177.334 88.5 302.001 88.5s224.5 -30.833 299.5 -92.5
s114.167 -144.834 117.5 -249.501h-165c-3.33301 60 -27.333 106.167 -72 138.5s-106 48.5 -184 48.5c-74.667 0 -134 -14.5 -178 -43.5s-66 -67.5 -66 -115.5c0 -18.667 3 -35.5 9 -50.5s16 -27.833 30 -38.5s28 -19.667 42 -27s33.333 -14 58 -20s45.667 -10.667 63 -14
s41.666 -7.33301 72.999 -12c109.333 -18 187.666 -37 234.999 -57c109.333 -46 168.666 -126.667 177.999 -242c1.33301 -12.667 2 -25.334 2 -38.001c0 -103.333 -40 -186 -120 -248s-186 -93 -318 -93z" />
    <glyph glyph-name="t" unicode="t" horiz-adv-x="811" 
d="M634 161l119.999 0.000976562v-161h-143c-119.333 0 -213.166 34.5 -281.499 103.5s-102.5 163.5 -102.5 283.5v562h-195v31l342 360h27v-234h347v-157h-347v-557c0 -74.667 20 -131.834 60 -171.501s97.667 -59.5 173 -59.5z" />
    <glyph glyph-name="u" unicode="u" horiz-adv-x="1294" 
d="M647 -24c-148.667 0 -267.5 44.668 -356.5 134.001s-133.5 208.333 -133.5 357v639h174v-611c0 -108.667 28.333 -194.334 85 -257.001s133.667 -94 231 -94c98 0 175.167 31.5 231.5 94.5s84.5 148.5 84.5 256.5v611h174v-639c0 -148.667 -44.333 -267.667 -133 -357
s-207.667 -134 -357 -134z" />
    <glyph glyph-name="v" unicode="v" horiz-adv-x="1171" 
d="M956 1106h178l-466 -1106h-158l-479 1106h182l375 -880z" />
    <glyph glyph-name="w" unicode="w" horiz-adv-x="1738" 
d="M1524 1106h176l-377 -1106h-142l-312 754l-313 -754h-141l-374 1106h182l275 -815l339 798h63l341 -805z" />
    <glyph glyph-name="x" unicode="x" horiz-adv-x="1050" 
d="M1038 0h-195l-318 461l-318 -461h-191l405 575l-372 531h196l282 -409l287 409h192l-376 -523z" />
    <glyph glyph-name="y" unicode="y" horiz-adv-x="1200" 
d="M984 1106h185.001l-527 -1152c-60 -131.333 -121.167 -222.333 -183.5 -273s-145.5 -76 -249.5 -76h-104v158h89c73.333 0 128.666 15 165.999 45s78.333 91.667 123 185l40 82l-492 1031h190l393 -837z" />
    <glyph glyph-name="z" unicode="z" horiz-adv-x="985" 
d="M332 163h586v-163h-867v26l587 919h-548v161h825v-29z" />
    <glyph glyph-name="braceleft" unicode="{" horiz-adv-x="710" 
d="M539 -122l120.001 1v-154h-180c-72.667 0 -134.667 25.5 -186 76.5s-77 113.167 -77 186.5v490c0 32 -11.333 59.167 -34 81.5s-50 33.5 -82 33.5h-31v146h31c32.667 0 60.167 11.167 82.5 33.5s33.5 49.833 33.5 82.5v489c0 72.667 25.667 134.334 77 185.001
s113.333 76 186 76h177v-153h-117c-43.333 0 -79.333 -14.333 -108 -43s-43 -64.667 -43 -108v-437c0 -44.667 -11.333 -85 -34 -121s-51.334 -61.667 -86.001 -77c34 -15.333 62.5 -40.833 85.5 -76.5s34.5 -75.834 34.5 -120.501v-440c0 -42 14.5 -77.667 43.5 -107
s64.833 -44 107.5 -44z" />
    <glyph glyph-name="bar" unicode="|" horiz-adv-x="555" 
d="M196 -389v2109h163v-2109h-163z" />
    <glyph glyph-name="braceright" unicode="}" horiz-adv-x="710" 
d="M611 739h31.001v-146h-31c-32.667 0 -60.167 -11.167 -82.5 -33.5s-33.5 -49.5 -33.5 -81.5v-490c0 -73.333 -25.667 -135.5 -77 -186.5s-113.333 -76.5 -186 -76.5h-180v153h120c42.667 0 78.5 14.667 107.5 44s43.5 65 43.5 107v440c0 44.667 11.5 84.834 34.5 120.501
s51.5 61.167 85.5 76.5c-34.667 15.333 -63.334 41 -86.001 77s-34 76.333 -34 121v437c0 43.333 -14.5 79.333 -43.5 108s-64.833 43 -107.5 43h-117v153h177c72.667 0 134.667 -25.333 186 -76s77 -112.334 77 -185.001v-489c0 -32.667 11.167 -60.167 33.5 -82.5
s49.833 -33.5 82.5 -33.5z" />
    <glyph glyph-name="asciitilde" unicode="~" horiz-adv-x="1183" 
d="M798 484c-45.333 0 -87.3311 9.33398 -125.998 28.001s-82.667 50.667 -132 96c-32.667 32 -58.334 53.667 -77.001 65s-38.334 17 -59.001 17c-39.333 0 -71.333 -15.833 -96 -47.5s-37 -72.834 -37 -123.501v-29h-126v35c0 96.667 23.333 173.667 70 231s109 86 187 86
c48 0 91.167 -9.5 129.5 -28.5s79.833 -51.5 124.5 -97.5c32 -32 57.667 -53.667 77 -65s40 -17 62 -17c39.333 0 70.833 15 94.5 45s35.5 70.333 35.5 121v31h126v-33c0 -96.667 -22.667 -173.167 -68 -229.5s-107 -84.5 -185 -84.5z" />
    <glyph glyph-name="uni00A0" unicode="&#xa0;" horiz-adv-x="536" 
 />
    <glyph glyph-name="cent" unicode="&#xa2;" horiz-adv-x="1222" 
d="M1153 360c-29.333 -104 -83.335 -189.83 -162.002 -257.497s-171.667 -107.834 -279 -120.501v-163h-141v163c-138 16 -252 75.167 -342 177.5s-135 225.166 -135 368.499c0 145.333 44.833 268.666 134.5 369.999s203.834 159.666 342.501 174.999v174h141v-174
c108 -12.667 201.167 -52.5 279.5 -119.5s131.833 -152.167 160.5 -255.5h-167c-30.667 68 -76.5 121 -137.5 159s-130.167 57 -207.5 57c-108 0 -198 -36.667 -270 -110s-108 -165.333 -108 -276c0 -109.333 36.333 -201.166 109 -275.499s162.334 -111.5 269.001 -111.5
c78 0 147.5 19.667 208.5 59s107.167 94 138.5 164z" />
    <glyph glyph-name="sterling" unicode="&#xa3;" horiz-adv-x="1220" 
d="M971 330l155.002 0.00195312v-330h-1031v122l143 23v436h-122v146h122v260c0 121.333 40.167 220.666 120.5 297.999s182.166 116 305.499 116c120.667 0 219.167 -37.833 295.5 -113.5s114.5 -172.834 114.5 -291.501v-19h-155v10c0 72.667 -24.333 133 -73 181
s-109.334 72 -182.001 72c-74.667 0 -136.167 -24.833 -184.5 -74.5s-72.5 -112.5 -72.5 -188.5v-250h371v-146h-371v-433h564v182z" />
    <glyph glyph-name="yen" unicode="&#xa5;" horiz-adv-x="1304" 
d="M738 609v-48h392v-114h-392v-133h392v-113h-392v-201h-172v201h-393v113h393v133h-393v114h393v46l-501 755h180l405 -615l410 615h182z" />
    <glyph glyph-name="dieresis" unicode="&#xa8;" 
d="M203 1297v200h200v-200h-200zM607 1297v200h199v-200h-199z" />
    <glyph glyph-name="copyright" unicode="&#xa9;" horiz-adv-x="1718" 
d="M857 -22c-145.333 0 -275.666 31.167 -390.999 93.5s-205.166 149.666 -269.499 261.999s-96.5 239.5 -96.5 381.5s32.167 269.167 96.5 381.5s154.166 199.666 269.499 261.999s245.666 93.5 390.999 93.5c146 0 277 -31.333 393 -94s206.5 -150.167 271.5 -262.5
s97.5 -239.166 97.5 -380.499s-32.5 -268.166 -97.5 -380.499s-155.5 -199.833 -271.5 -262.5s-247 -94 -393 -94zM857 88c92.667 0 179.001 15.5 259.001 46.5s148.333 73.833 205 128.5s101.167 121 133.5 199s48.5 162.333 48.5 253
c0 121.333 -27.5 229.666 -82.5 324.999s-131.667 169.333 -230 222s-209.5 79 -333.5 79s-234.833 -26.333 -332.5 -79s-173.834 -126.667 -228.501 -222s-82 -203.666 -82 -324.999c0 -184 60.167 -334.5 180.5 -451.5s274.5 -175.5 462.5 -175.5zM860.001 342
c-107.333 0 -197.166 36 -269.499 108s-108.5 161 -108.5 267c0 108 36 197.667 108 269s162 107 270 107c84 0 157.167 -23.5 219.5 -70.5s104.5 -109.5 126.5 -187.5h-116c-20.667 45.333 -51.334 80.666 -92.001 105.999s-86.667 38 -138 38
c-74.667 0 -136.667 -25 -186 -75s-74 -112.333 -74 -187c0 -73.333 24.667 -134.666 74 -183.999s111.333 -74 186 -74c51.333 0 97 12.5 137 37.5s70.333 60.833 91 107.5h120c-22 -79.333 -64.5 -142.833 -127.5 -190.5s-136.5 -71.5 -220.5 -71.5z" />
    <glyph glyph-name="guillemotleft" unicode="&#xab;" horiz-adv-x="1224" 
d="M423 120l-344 413v28l344 413h206l-352 -427l352 -427h-206zM914 120l-344 413v28l344 413h206l-352 -427l352 -427h-206z" />
    <glyph glyph-name="uni00AD" unicode="&#xad;" horiz-adv-x="931" 
d="M141 488v168h650v-168h-650z" />
    <glyph glyph-name="registered" unicode="&#xae;" horiz-adv-x="970" 
d="M487 1454c108.667 0 200.667 -37.667 276 -113s113 -167.333 113 -276s-37.667 -201 -113 -277s-167.333 -114 -276 -114c-108 0 -200.167 38.167 -276.5 114.5s-114.5 168.5 -114.5 276.5c0 108.667 38 200.667 114 276s168.333 113 277 113zM487 749
c88 0 162.668 30.667 224.001 92s92 136 92 224c0 86.667 -30.833 160.667 -92.5 222s-136.167 92 -223.5 92c-88.667 0 -163.834 -30.5 -225.501 -91.5s-92.5 -135.167 -92.5 -222.5c0 -88 31 -162.667 93 -224s137 -92 225 -92zM651.001 1138
c0 -28.667 -7.16797 -53 -21.501 -73s-34.166 -34.333 -59.499 -43l91 -154h-79l-85 145h-70v-145h-75v403h166c38.667 0 70.5 -12.667 95.5 -38s37.5 -57 37.5 -95zM427 1202v-121h85c20 0 36 5.33301 48 16s18 25 18 43s-6 32.833 -18 44.5s-28 17.5 -48 17.5h-85z" />
    <glyph glyph-name="acute" unicode="&#xb4;" horiz-adv-x="917" 
d="M205 1236l138 311h185l-186 -311h-137z" />
    <glyph glyph-name="cedilla" unicode="&#xb8;" horiz-adv-x="794" 
d="M392 -87c57.333 -6.66699 103.834 -27.499 139.501 -62.499s53.5 -78.167 53.5 -129.5c0 -58 -20.833 -105 -62.5 -141s-96.834 -54 -165.501 -54h-151v101h131c35.333 0 64 9.16699 86 27.5s33 42.166 33 71.499s-11 53 -33 71s-51 27 -87 27h-52l-19 19l56 215h111z
" />
    <glyph glyph-name="guillemotright" unicode="&#xbb;" horiz-adv-x="1224" 
d="M310 120h-207l353 427l-353 427h207l344 -413v-28zM801 120h-207l353 427l-353 427h207l344 -413v-28z" />
    <glyph glyph-name="circumflex" unicode="&#x2c6;" 
d="M990 1236h-154l-189 206l-188 -206h-155l243 311h199z" />
    <glyph glyph-name="ring" unicode="&#x2da;" horiz-adv-x="839" 
d="M420 1208c-68.667 0 -124.834 20.667 -168.501 62s-65.5 94 -65.5 158c0 64.667 21.833 117.5 65.5 158.5s99.834 61.5 168.501 61.5s124.667 -20.5 168 -61.5s65 -93.833 65 -158.5c0 -64 -21.833 -116.667 -65.5 -158s-99.5 -62 -167.5 -62zM420 1307
c37.333 0 67.833 11.167 91.5 33.5s35.5 51.5 35.5 87.5c0 36.667 -11.833 66.167 -35.5 88.5s-54.167 33.5 -91.5 33.5s-67.833 -11.167 -91.5 -33.5s-35.5 -51.833 -35.5 -88.5c0 -36 11.833 -65.167 35.5 -87.5s54.167 -33.5 91.5 -33.5z" />
    <glyph glyph-name="tilde" unicode="&#x2dc;" 
d="M761 1250c-29.333 0 -57.1689 5.33203 -83.502 15.999s-46.5 21.667 -60.5 33s-31.333 27 -52 47c-16.667 15.333 -29.167 26.333 -37.5 33s-19.166 13.334 -32.499 20.001s-26.666 10 -39.999 10c-27.333 0 -49.666 -11.833 -66.999 -35.5s-26 -54.5 -26 -92.5v-22h-107
v26c0 75.333 17.667 135.166 53 179.499s83.666 66.5 144.999 66.5c28 0 54 -4.83301 78 -14.5s42.833 -20.167 56.5 -31.5s30.167 -26.666 49.5 -45.999c22 -23.333 42 -40.666 60 -51.999s38.667 -17 62 -17c28 0 50.333 11.833 67 35.5s25 55.167 25 94.5v18h109v-22
c0 -74.667 -18 -134.334 -54 -179.001s-84.333 -67 -145 -67z" />
    <glyph glyph-name="uni2000" unicode="&#x2000;" horiz-adv-x="860" 
 />
    <glyph glyph-name="uni2001" unicode="&#x2001;" horiz-adv-x="1720" 
 />
    <glyph glyph-name="uni2002" unicode="&#x2002;" horiz-adv-x="860" 
 />
    <glyph glyph-name="uni2003" unicode="&#x2003;" horiz-adv-x="1720" 
 />
    <glyph glyph-name="uni2004" unicode="&#x2004;" horiz-adv-x="573" 
 />
    <glyph glyph-name="uni2005" unicode="&#x2005;" horiz-adv-x="430" 
 />
    <glyph glyph-name="uni2006" unicode="&#x2006;" horiz-adv-x="286" 
 />
    <glyph glyph-name="uni2007" unicode="&#x2007;" horiz-adv-x="286" 
 />
    <glyph glyph-name="uni2008" unicode="&#x2008;" horiz-adv-x="215" 
 />
    <glyph glyph-name="uni2009" unicode="&#x2009;" horiz-adv-x="344" 
 />
    <glyph glyph-name="uni200A" unicode="&#x200a;" horiz-adv-x="95" 
 />
    <glyph glyph-name="uni2010" unicode="&#x2010;" horiz-adv-x="931" 
d="M141 488v168h650v-168h-650z" />
    <glyph glyph-name="uni2011" unicode="&#x2011;" horiz-adv-x="931" 
d="M141 488v168h650v-168h-650z" />
    <glyph glyph-name="figuredash" unicode="&#x2012;" horiz-adv-x="931" 
d="M141 488v168h650v-168h-650z" />
    <glyph glyph-name="endash" unicode="&#x2013;" horiz-adv-x="1310" 
d="M141 488v168h1029v-168h-1029z" />
    <glyph glyph-name="emdash" unicode="&#x2014;" horiz-adv-x="1837" 
d="M141 488v168h1554v-168h-1554z" />
    <glyph glyph-name="quoteleft" unicode="&#x2018;" horiz-adv-x="460" 
d="M324 1548v-95.999c-71.333 -24.667 -107 -83.334 -107 -176.001h116v-215h-210v200c0 153.333 67 249 201 287z" />
    <glyph glyph-name="quoteright" unicode="&#x2019;" horiz-adv-x="448" 
d="M142 984v97c71.333 24.667 107 83 107 175h-117v215h211v-200c0 -153.333 -67 -249 -201 -287z" />
    <glyph glyph-name="quotesinglbase" unicode="&#x201a;" horiz-adv-x="493" 
d="M151 -272v97c71.333 24.667 107 83 107 175h-117v215h211v-200c0 -153.333 -67 -249 -201 -287z" />
    <glyph glyph-name="quotedblleft" unicode="&#x201c;" horiz-adv-x="813" 
d="M323 1551l1 -95c-72 -26 -108 -84.333 -108 -175h117v-216h-210v201c0 152.667 66.667 247.667 200 285zM675 1551l2 -95c-72 -26 -108 -84.333 -108 -175h117v-216h-211v201c0 152.667 66.667 247.667 200 285z" />
    <glyph glyph-name="quotedblright" unicode="&#x201d;" horiz-adv-x="800" 
d="M143 985l-1 95c71.333 25.333 107 83.666 107 174.999h-117v216h211v-200c0 -153.333 -66.667 -248.666 -200 -285.999zM496 985l-2 94.999c72 26 108 84.333 108 175h-117v216h211v-200c0 -153.333 -66.667 -248.666 -200 -285.999z" />
    <glyph glyph-name="quotedblbase" unicode="&#x201e;" horiz-adv-x="845" 
d="M152 -270l-1 95.001c71.333 25.333 107 83.666 107 174.999h-117v215h211v-200c0 -152.667 -66.667 -247.667 -200 -285zM505 -269.999l-2 95c72 26 108 84.333 108 175h-117v215h211v-200c0 -152.667 -66.667 -247.667 -200 -285z" />
    <glyph glyph-name="ellipsis" unicode="&#x2026;" horiz-adv-x="1134" 
d="M139 0v218h200v-218h-200zM467 0v218h200v-218h-200zM795 0v218h200v-218h-200z" />
    <glyph glyph-name="uni202F" unicode="&#x202f;" horiz-adv-x="344" 
 />
    <glyph glyph-name="guilsinglleft" unicode="&#x2039;" horiz-adv-x="733" 
d="M423 120l-344 413v28l344 413h206l-352 -427l352 -427h-206z" />
    <glyph glyph-name="guilsinglright" unicode="&#x203a;" horiz-adv-x="733" 
d="M310 120h-207l353 427l-353 427h207l344 -413v-28z" />
    <glyph glyph-name="uni205F" unicode="&#x205f;" horiz-adv-x="430" 
 />
    <glyph glyph-name="Euro" unicode="&#x20ac;" horiz-adv-x="1327" 
d="M971 1243c-112 0 -213.667 -28.5 -305 -85.5s-159 -134.833 -203 -233.5h685l-36 -146h-691c-4 -30 -6 -60.667 -6 -92c0 -36.667 2.33301 -70 7 -100h642l-34 -146h-563c44.667 -96.667 112.167 -172.667 202.5 -228s190.166 -83 299.499 -83
c76.667 0 150.667 13.667 222 41v-156c-77.333 -26.667 -158.666 -40 -243.999 -40c-150 0 -285.833 42.167 -407.5 126.5s-206.834 197.5 -255.501 339.5h-216l34 146h148c-4 32 -6 65.333 -6 100c0 28 1.66699 58.667 5 92h-175l34 146h172
c46.667 146 131.667 261.667 255 347s262.333 128 417 128c106.667 0 208.334 -20 305.001 -60l-36 -146c-78 33.333 -161.333 50 -250 50z" />
    <glyph glyph-name="trademark" unicode="&#x2122;" horiz-adv-x="1765" 
d="M705 1321h-251v-643h-122v643h-269v113h642v-113zM1638 678h-118l-95 564l-268 -564h-27l-267 564l-97 -564h-118l128 756h107l260 -556l261 556h109z" />
    <glyph glyph-name="uni25FC" unicode="&#x25fc;" horiz-adv-x="1105" 
d="M0 1106h1106v-1106h-1106v1106z" />
    <glyph glyph-name="glyph1" horiz-adv-x="0" 
 />
    <glyph glyph-name="glyph2" horiz-adv-x="682" 
 />
    </font>
</defs>
</svg>
